aoloffline
版主

[2018] [欧美] [剧情] [WEB-1080P] [ВТ下载]生命中最美好的一天 Here.And.Now.2018.1080p.WEB-DL.DD5.1.H264-FGT 3.15GB

-->

Here.And.Now.2018.1080p.WEB-DL.DD5.1.H264-FGT

◎译  名 生命中最美好的一天 / Best Day of My Life

◎片  名 Blue Night

◎年  代 2018

◎产  地 美国

◎类  别 剧情 / 爱情 / 音乐

◎上映日期 2018-04-19(翠贝卡电影节) / 2018-11-09(美国)

◎IMDb评分 6.2/10 from 85 users

◎IMDb链接 http://www.imdb.com/title/tt6069162

◎BT之家整理 http://www.btbtt.us/

◎片  长 91分钟

◎导  演 Fabien Constant

◎编  剧 Laura Eason

◎主  演 蕾妮·齐薇格 Renée Zellweger

      西蒙·贝克 Simon Baker

      莎拉·杰茜卡·帕克 Sarah Jessica Parker

      杰奎琳·比塞特 Jacqueline Bisset

      泰勒·金尼 Taylor Kinney

      科曼 Common

      格斯·伯尼 Gus Birney

      瓦利德·祖伊特 Waleed Zuaiter

      玛丽·贝丝·佩尔 Mary Beth Peil

      菲莉帕·苏 Phillipa Soo

      迈克尔·波茨 Michael Potts

      克里斯塔尔·伦伯格 Crystal Lonneberg

      桃乐丝·麦卡锡 Doris McCarthy

      法妮勒埃文斯 Venida Evans

      克利夫·莫伊伦 Cliff Moylan

      Mary Looram

      Alex Rak




◎简  介  


  蕾妮·齐薇格、伊莎贝拉·罗塞里尼加盟莎拉·杰茜卡·帕克新片[生命中最美好的一天](Best Day of My Life,暂译)。法比安·康斯坦特执导,劳拉·伊森编剧。讲述薇薇安(帕克饰)是一名爵士乐歌手,她的生活因一份病院诊断书改变。影片将聚焦她全球巡回表演的24小时。该片7月将在纽约开拍。


Video
ID : 1
Format : AVC
Format/Info : Advanced Video Codec
Format profile : High@L4
Format settings : CABAC / 5 Ref Frames
Format settings, CABAC : Yes
Format settings, ReFrames : 5 frames
Codec ID : V_MPEG4/ISO/AVC
Duration : 1 h 31 min
Bit rate : 4 569 kb/s
Width : 1 920 pixels
Height : 792 pixels
Display aspect ratio : 2.40:1
Frame rate mode : Constant
Frame rate : 23.976 (23976/1000) FPS
Color space : YUV
Chroma subsampling : 4:2:0
Bit depth : 8 bits
Scan type : Progressive
Bits/(Pixel*Frame) : 0.125
Stream size : 2.91 GiB (92%)
Title : Here.And.Now.2018.1080p.WEB-DL.DD5.1.H264-FGT
Language : English
Default : Yes
Forced : No
Color range : Limited
Color primaries : BT.709
Transfer characteristics : BT.709
Matrix coefficients : BT.709

Audio
ID : 2
Format : AC-3
Format/Info : Audio Coding 3
Commercial name : Dolby Digital
Codec ID : A_AC3
Duration : 1 h 31 min
Bit rate mode : Constant
Bit rate : 384 kb/s
Channel(s) : 6 channels
Channel layout : L R C LFE Ls Rs
Sampling rate : 48.0 kHz
Frame rate : 31.250 FPS (1536 SPF)
Bit depth : 16 bits
Compression mode : Lossy
Stream size : 250 MiB (8%)
Title : Here.And.Now.2018.1080p.WEB-DL.DD5.1.H264-FGT
Language : English
Service kind : Complete Main
Default : Yes
Forced : No

Menu
00:00:00.000 : en:Chapter 1
00:05:39.000 : en:Chapter 2
00:13:35.000 : en:Chapter 3
00:21:09.000 : en:Chapter 4
00:31:28.000 : en:Chapter 5
00:41:38.000 : en:Chapter 6
00:52:40.000 : en:Chapter 7
01:01:25.000 : en:Chapter 8
01:10:38.000 : en:Chapter 9
01:19:31.000 : en:Chapter 10
01:25:24.000 : en:Chapter 11



1 个附件 售价 大小 下载 时间

Here.And.Now.2018.1080p.WEB-DL.DD5.1.H264-FGT[btbtt.me].torrent 0 金币 63.54K 364 次 7天前

#1楼
发帖时间:2018-11-09 17:29:36   |   回复数:4
911degrees
隐世仙人♂
非常感谢,谢谢分享
7天前 #2楼
tanchoohoon
武林盟主
感谢楼主的无私分享
7天前 #3楼
liyouchai
超凡入圣№
谢谢楼主分享资源
6天前 #4楼
blue23
隐世仙人♂
感谢楼主分享
5天前 #5楼
游客组