aoloffline
版主

[2016] [欧美] [剧情] [WEB-1080P] [ВТ下载]Stevie.D.2016.1080p.AMZN.WEBRip.DDP5.1.x264-SiGMA 4.23GB

-->

Stevie.D.2016.1080p.AMZN.WEBRip.DDP5.1.x264-SiGMA


◎译  名 

◎片  名 Stevie D

◎年  代 2016

◎产  地 美国

◎类  别 剧情 / 喜剧 / 犯罪

◎语  言 英语

◎上映日期 2016-12-09

◎IMDb评分 4.9/10 from 183 users

◎IMDb链接 http://www.imdb.com/title/tt3644258

◎BT之家整理 http://www.btbtt.us/

◎片  长 119分钟

◎导  演 Chris Cordone

◎编  剧 Chris Cordone

◎主  演 Chris Cordone

      凯文·查普曼 Kevin Chapman

      托里·德维托 Torrey DeVitto



◎简  介  


  STEVIE D is a humorous crime drama about a Los Angeles construction magnate whose only son has accidentally killed a connected man. A sinister plan is hatched that
sends the son into hiding while an unsuccessful actor is hired to fill his shoes and unknowingly take the hit.


Video
ID : 1
Format : AVC
Format/Info : Advanced Video Codec
Format profile : High@L4
Format settings : CABAC / 4 Ref Frames
Format settings, CABAC : Yes
Format settings, ReFrames : 4 frames
Codec ID : V_MPEG4/ISO/AVC
Duration : 1 h 59 min
Bit rate mode : Variable
Bit rate : 4 412 kb/s
Maximum bit rate : 15.0 Mb/s
Width : 1 920 pixels
Height : 1 040 pixels
Display aspect ratio : 1.85:1
Frame rate mode : Constant
Frame rate : 23.976 (24000/1001) FPS
Color space : YUV
Chroma subsampling : 4:2:0
Bit depth : 8 bits
Scan type : Progressive
Bits/(Pixel*Frame) : 0.092
Stream size : 3.69 GiB (87%)
Default : Yes
Forced : No
Color range : Limited
Color primaries : BT.709
Transfer characteristics : BT.709
Matrix coefficients : BT.709

Audio
ID : 2
Format : E-AC-3
Format/Info : Enhanced AC-3
Commercial name : Dolby Digital Plus
Codec ID : A_EAC3
Duration : 1 h 59 min
Bit rate mode : Constant
Bit rate : 640 kb/s
Channel(s) : 6 channels
Channel layout : L R C LFE Ls Rs
Sampling rate : 48.0 kHz
Frame rate : 31.250 FPS (1536 SPF)
Compression mode : Lossy
Stream size : 548 MiB (13%)
Language : English
Service kind : Complete Main
Default : Yes
Forced : No

Text
ID : 3
Format : UTF-8
Codec ID : S_TEXT/UTF8
Codec ID/Info : UTF-8 Plain Text
Duration : 1 h 56 min
Bit rate : 90 b/s
Count of elements : 2929
Stream size : 77.6 KiB (0%)
Title : English (SDH)
Language : English
Default : No
Forced : No



1 个附件 售价 大小 下载 时间

Stevie.D.2016.1080p.AMZN.WEBRip.DDP5.1.x264-SiGMA[btbtt.me].torrent 0 金币 85.07K 203 次 7天前

#1楼
发帖时间:2018-11-09 12:02:18   |   回复数:4
911degrees
隐世仙人♂
非常感谢,谢谢分享
7天前 #2楼
tanchoohoon
武林盟主
感谢楼主的无私分享
7天前 #3楼
liyouchai
超凡入圣№
谢谢楼主分享资源
6天前 #4楼
blue23
隐世仙人♂
感谢楼主分享
5天前 #5楼
游客组