aoloffline
版主

[2017] [欧美] [纪录] [WEB-720P] [ВТ下载]愿它长久:艾未特兄弟肖像 2017.720p.AMZN.WEBRip.DDP5.1.x264-NTb 3.3GB

-->

May.It.Last.A.Portrait.of.the.Avett.Brothers.2017.720p.AMZN.WEBRip.DDP5.1.x264-NTb


◎译  名 愿它长久:艾未特兄弟肖像

◎片  名 May It Last: A Portrait of the Avett Brothers

◎年  代 2017

◎产  地 美国

◎类  别 纪录片 / 音乐

◎语  言 英语

◎上映日期 2017-03-15

◎IMDb评分 8.6/10 from 409 users

◎IMDb链接 http://www.imdb.com/title/tt6487050

◎BT之家整理 http://www.btbtt.us/

◎片  长 104分钟

◎导  演 贾德·阿帕图 Judd Apatow / Michael Bonfiglio

◎主  演 詹妮弗·卡朋特 Jennifer Carpenter

      Bob Crawford

      Scott Avett

      Seth Avett

      Rick Rubin




◎简  介  


  艾未特兄弟(The Avett Brothers)是美国北卡罗来纳州芒特普莱森特小镇走出来的民谣摇滚乐队。乐队有三个固定成员组成,核心是Scott Avett和Seth Avett兄弟俩,分别演奏班卓琴和吉他,另外一名成员Bob Crawford司职低音提琴手。此外乐队还有两名巡回演出班底,分别是大提琴手Joe Kwon和鼓手Jacob Edwards。艾未特兄弟的前身是Scott Avett和Seth Avett创建的摇滚乐队Nemo。艾未特兄弟的音乐融合了蓝草音乐,乡村,朋克,流行音乐,民谣,摇滚,酒吧音乐,还融入了拉格泰姆音乐风格。旧金山纪事报把他们的音乐形容为“悲伤如Townes Van Zandt,轻松明快如 Buddy Holly,和谐悦耳如Beatles,散发的狂野能量却犹如Ramones”


Video
ID : 1
Format : AVC
Format/Info : Advanced Video Codec
Format profile : High@L3.1
Format settings : CABAC / 5 Ref Frames
Format settings, CABAC : Yes
Format settings, ReFrames : 5 frames
Codec ID : V_MPEG4/ISO/AVC
Duration : 1 h 43 min
Bit rate mode : Variable
Bit rate : 3 900 kb/s
Maximum bit rate : 4 500 kb/s
Width : 1 280 pixels
Height : 720 pixels
Display aspect ratio : 16:9
Frame rate mode : Constant
Frame rate : 23.976 (24000/1001) FPS
Color space : YUV
Chroma subsampling : 4:2:0
Bit depth : 8 bits
Scan type : Progressive
Bits/(Pixel*Frame) : 0.176
Stream size : 2.83 GiB (86%)
Default : Yes
Forced : No
Color range : Limited
Color primaries : BT.709
Transfer characteristics : BT.709
Matrix coefficients : BT.709

Audio
ID : 2
Format : E-AC-3
Format/Info : Enhanced AC-3
Commercial name : Dolby Digital Plus
Codec ID : A_EAC3
Duration : 1 h 43 min
Bit rate mode : Constant
Bit rate : 640 kb/s
Channel(s) : 6 channels
Channel layout : L R C LFE Ls Rs
Sampling rate : 48.0 kHz
Frame rate : 31.250 FPS (1536 SPF)
Compression mode : Lossy
Stream size : 475 MiB (14%)
Language : English
Service kind : Complete Main
Default : Yes
Forced : No

Text #1
ID : 3
Format : UTF-8
Codec ID : S_TEXT/UTF8
Codec ID/Info : UTF-8 Plain Text
Duration : 1 h 43 min
Bit rate : 86 b/s
Count of elements : 1891
Stream size : 65.5 KiB (0%)
Language : English
Default : No
Forced : No

Text #2
ID : 4
Format : UTF-8
Codec ID : S_TEXT/UTF8
Codec ID/Info : UTF-8 Plain Text
Duration : 1 h 43 min
Bit rate : 89 b/s
Count of elements : 2016
Stream size : 68.1 KiB (0%)
Title : SDH
Language : English
Default : No
Forced : No



1 个附件 售价 大小 下载 时间

May.It.Last.A.Portrait.of.the.Avett.Brothers.2017.720p.AMZN.WEBRip.DDP5.1.x264-NTb[btbtt.me].torrent 0 金币 66.50K 252 次 7天前

#1楼
发帖时间:2018-11-09 11:52:45   |   回复数:3
911degrees
隐世仙人♂
非常感谢,谢谢分享
6天前 #2楼
liyouchai
超凡入圣№
谢谢楼主分享资源
6天前 #3楼
blue23
隐世仙人♂
感谢楼主分享
5天前 #4楼
游客组