aoloffline
版主

[2017] [多国] [剧情] [WEB-1080P] [ВТ下载]伤口 Inxeba.2017.SUBBED.1080p.AMZN.WEBRip.DDP5.1.x264-Cinefeel 3.9GB

-->

Inxeba.AKA.The.Wound.2017.SUBBED.1080p.AMZN.WEBRip.DDP5.1.x264-Cinefeel


◎译  名 伤口 / The Wound / 割爱(港 / 台)

◎片  名 Inxeba

◎年  代 2017

◎产  地 南非 / 德国 / 荷兰 / 法国

◎类  别 剧情 / 爱情 / 同性

◎语  言 科萨语 / 南非语 / 英语

◎上映日期 2017-01-22(圣丹斯电影节) / 2017-02-09(柏林电影节) / 2017-09-15(南非)

◎IMDb评分 6.7/10 from 1137 users

◎IMDb链接 http://www.imdb.com/title/tt6333070

◎豆瓣评分 6.9/10 from 796 users

◎豆瓣链接 https://movie.douban.com/subject/26949364/

◎BT之家整理 http://www.btbtt.us/

◎片  长 88分钟

◎导  演 约翰·特伦戈夫 John Trengove

◎编  剧 约翰·特伦戈夫 John Trengove / 杉多·姆科罗扎纳 Thando Mgqolozana / 马鲁斯·本古 Malusi Bengu

◎主  演 纳肯·图雷 Nakhane Touré

      邦基尔·曼赛 Bongile Mantsai

      尼扎·杰 Niza Jay

      索巴尼·姆瑟勒尼 Thobani Mseleni




◎简  介  


  南非科萨族的割礼仪式,是每名男孩成为男人前的人生大事。由割包皮到等待伤口复原,部族内的男子经历了一场雄性的成人礼。寂寞工人科拉尼,每两年都出任成人礼的监护人,见证青少年成人。他跟一同担任监护人的好友,两年一会,趁机私会。偏偏,今年来了一名反叛青年,他不只大胆挑战割礼的合理性,更勇闯禁忌,挑战南非性别传统,一场禁忌下的爱情故事,将要发生。


◎获奖情况  


  第67届柏林国际电影节(2017)

  泰迪熊奖 最佳电影(提名) 约翰·特伦戈夫



Video
ID : 1
Format : AVC
Format/Info : Advanced Video Codec
Format profile : High@L4
Format settings : CABAC / 4 Ref Frames
Format settings, CABAC : Yes
Format settings, ReFrames : 4 frames
Codec ID : V_MPEG4/ISO/AVC
Duration : 1 h 28 min
Bit rate mode : Variable
Bit rate : 5 732 kb/s
Maximum bit rate : 15.0 Mb/s
Width : 1 920 pixels
Height : 1 080 pixels
Display aspect ratio : 16:9
Frame rate mode : Constant
Frame rate : 24.000 FPS
Color space : YUV
Chroma subsampling : 4:2:0
Bit depth : 8 bits
Scan type : Progressive
Bits/(Pixel*Frame) : 0.115
Stream size : 3.54 GiB (90%)
Default : Yes
Forced : No
Color range : Limited
Color primaries : BT.709
Transfer characteristics : BT.709
Matrix coefficients : BT.709

Audio
ID : 2
Format : E-AC-3
Format/Info : Enhanced AC-3
Commercial name : Dolby Digital Plus
Codec ID : A_EAC3
Duration : 1 h 28 min
Bit rate mode : Constant
Bit rate : 640 kb/s
Channel(s) : 6 channels
Channel layout : L R C LFE Ls Rs
Sampling rate : 48.0 kHz
Frame rate : 31.250 FPS (1536 SPF)
Compression mode : Lossy
Stream size : 404 MiB (10%)
Language : Chinese
Service kind : Complete Main
Default : Yes
Forced : No



1 个附件 售价 大小 下载 时间

Inxeba.AKA.The.Wound.2017.SUBBED.1080p.AMZN.WEBRip.DDP5.1.x264-Cinefeel[btbtt.me].torrent 0 金币 79.22K 336 次 7天前

#1楼
发帖时间:2018-11-09 11:45:40   |   回复数:3
911degrees
隐世仙人♂
非常感谢,谢谢分享
6天前 #2楼
liyouchai
超凡入圣№
谢谢楼主分享资源
6天前 #3楼
blue23
隐世仙人♂
感谢楼主分享
5天前 #4楼
游客组