aoloffline
版主

[更 早] [欧美] [恐怖] [BD-1080P] [ВТ下载]血 Blood.1973.1080p.BluRay.x264.DTS-FGT 6.36GB

-->

Blood.1973.1080p.BluRay.x264.DTS-FGT

◎译  名 血

◎片  名 Blood

◎年  代 1974

◎产  地 美国

◎类  别 恐怖

◎语  言 英语

◎IMDb评分 4.9/10 from 150 users

◎IMDb链接 http://www.imdb.com/title/tt0071232

◎BT之家整理 http://www.btbtt.us/

◎片  长 74 分钟

◎导  演 Andy Milligan

◎编  剧 Andy Milligan


◎简  介  


  Werewolf in 1930s London teams up with Dracula's son.


Video
ID : 1
Format : AVC
Format/Info : Advanced Video Codec
Format profile : High@L4.1
Format settings : CABAC / 4 Ref Frames
Format settings, CABAC : Yes
Format settings, ReFrames : 4 frames
Codec ID : V_MPEG4/ISO/AVC
Duration : 1 h 10 min
Bit rate : 11.5 Mb/s
Width : 1 920 pixels
Height : 1 078 pixels
Display aspect ratio : 16:9
Frame rate mode : Constant
Frame rate : 23.976 (24000/1001) FPS
Color space : YUV
Chroma subsampling : 4:2:0
Bit depth : 8 bits
Scan type : Progressive
Bits/(Pixel*Frame) : 0.232
Stream size : 5.62 GiB (88%)
Title : Blood.1973.1080p.BluRay.x264.DTS-FGT
Writing library : x264 core 148 r2795M aaa9aa8
Encoding settings : cabac=1 / ref=4 / deblock=1:-2:-2 / analyse=0x3:0x113 / me=umh / subme=9 / psy=1 / psy_rd=1.00:0.15 / mixed_ref=1 / me_range=16 / chroma_me=1 / trellis=2 / 8x8dct=1 / cqm=0 / deadzone=21,11 / fast_pskip=1 / chroma_qp_offset=-3 / threads=24 / lookahead_threads=3 / sliced_threads=0 / nr=0 / decimate=1 / interlaced=0 / bluray_compat=0 / constrained_intra=0 / bframes=3 / b_pyramid=2 / b_adapt=1 / b_bias=0 / direct=3 / weightb=1 / open_gop=0 / weightp=2 / keyint=250 / keyint_min=25 / scenecut=40 / intra_refresh=0 / rc_lookahead=50 / rc=2pass / mbtree=1 / bitrate=11500 / ratetol=1.0 / qcomp=0.60 / qpmin=0 / qpmax=69 / qpstep=4 / cplxblur=20.0 / qblur=0.5 / vbv_maxrate=31250 / vbv_bufsize=31250 / nal_hrd=none / filler=0 / ip_ratio=1.40 / aq=1:1.00
Language : English
Default : Yes
Forced : No

Audio
ID : 2
Format : DTS
Format/Info : Digital Theater Systems
Codec ID : A_DTS
Duration : 1 h 10 min
Bit rate mode : Constant
Bit rate : 1 509 kb/s
Channel(s) : 2 channels
Channel layout : L R
Sampling rate : 48.0 kHz
Frame rate : 93.750 FPS (512 SPF)
Bit depth : 24 bits
Compression mode : Lossy
Stream size : 756 MiB (12%)
Title : Blood.1973.1080p.BluRay.x264.DTS-FGT
Language : English
Default : No
Forced : No

Menu
00:00:00.000 : en:Chapter 01
00:10:07.440 : en:Chapter 02
00:21:36.044 : en:Chapter 03
00:29:49.245 : en:Chapter 04
00:39:03.007 : en:Chapter 05
00:51:04.603 : en:Chapter 06
00:59:22.183 : en:Chapter 07
01:10:02.281 : en:Chapter 08



1 个附件 售价 大小 下载 时间

Blood.1973.1080p.BluRay.x264.DTS-FGT[btbtt.me].torrent 0 金币 64.15K 504 次 7天前

#1楼
发帖时间:2018-11-09 11:19:11   |   回复数:3
911degrees
隐世仙人♂
非常感谢,谢谢分享
6天前 #2楼
liyouchai
超凡入圣№
谢谢楼主分享资源
6天前 #3楼
blue23
隐世仙人♂
感谢楼主分享
5天前 #4楼
游客组