aoloffline
版主

[更 早] [欧美] [动作] [4K-Remux] [ВТ下载]第一滴血3 1988.2160p.BluRay.REMUX.HEVC.DTS-HD.MA.5.1-FGT 51GB

-->

Rambo.III.1988.2160p.BluRay.HEVC.DTS-HD.MA.5.1-TASTED


◎译  名 第一滴血3 / 兰博3

◎片  名 Rambo III

◎年  代 1988

◎产  地 美国

◎类  别 动作 / 惊悚 / 冒险

◎语  言 英语 / 俄语

◎上映日期 1988-05-25(美国)

◎IMDb评分 5.8/10 from 105225 users

◎IMDb链接 http://www.imdb.com/title/tt0095956

◎豆瓣评分 7.5/10 from 21861 users

◎豆瓣链接 https://movie.douban.com/subject/1300399/

◎BT之家整理 http://www.btbtt.us/

◎片  长 102 分钟

◎导  演 Peter MacDonald

◎编  剧 David Morrell / Sylvester Stallone / Sheldon Lettich

◎主  演 Sylvester Stallone

      Richard Crenna

      Marc de Jonge

      Kurtwood Smith

      Spiros Focás

      Sasson Gabai





◎简  介  


  历经无数战火与生死考验,孔武有力的豪情勇士约翰·兰博(西尔维斯特·史泰龙 Sylvester Stallone 饰)放下手中的杀人武器,在泰国过起了平静的修行生活。这一日,特劳特曼上校(理查德·克里纳 Richard Crenna 饰)突然出现在他面前。此前不久,上校受命率部队前往阿富汗,协助当地的圣战勇士反抗苏联人的入侵。虽然照片中阿富汗平民饱受外敌侵略和蹂躏的情景触目惊心,但兰博还是拒绝了上校的邀请。某晚,特劳特曼的部队在执行任务途中遭到苏联军队的伏击,其本人也不幸沦为阶下囚。得知这一消息,兰博再也无法静观其变。浴血战士重披战甲,只身闯入充满凶险的阿富汗腹地,展开一场紧张纷呈的绝命营救……

本片获1989年金酸梅最差男主角奖。


Video
ID : 1
Format : HEVC
Format/Info : High Efficiency Video Coding
Commercial name : HDR10
Format profile : Main 10@L5.1@High
Codec ID : V_MPEGH/ISO/HEVC
Duration : 1 h 41 min
Bit rate : 57.4 Mb/s
Width : 3 840 pixels
Height : 2 160 pixels
Display aspect ratio : 16:9
Frame rate mode : Constant
Frame rate : 24.000 FPS
Color space : YUV
Chroma subsampling : 4:2:0 (Type 2)
Bit depth : 10 bits
Bits/(Pixel*Frame) : 0.288
Stream size : 40.7 GiB (79%)
Title : Rambo.III.1988.2160p.BluRay.REMUX.HEVC.DTS-HD.MA.5.1-FGT
Default : Yes
Forced : No
Color range : Limited
Color primaries : BT.2020
Transfer characteristics : PQ
Matrix coefficients : BT.2020 non-constant
Mastering display color primaries : Display P3
Mastering display luminance : min: 0.0050 cd/m2, max: 1000 cd/m2
Maximum Content Light Level : 479 cd/m2
Maximum Frame-Average Light Level : 468 cd/m2

Audio #1
ID : 2
Format : DTS XLL
Format/Info : Digital Theater Systems
Commercial name : DTS-HD Master Audio
Codec ID : A_DTS
Duration : 1 h 41 min
Bit rate mode : Variable
Bit rate : 4 242 kb/s
Channel(s) : 6 channels
Channel layout : C L R Ls Rs LFE
Sampling rate : 48.0 kHz
Frame rate : 93.750 FPS (512 SPF)
Bit depth : 24 bits
Compression mode : Lossless
Stream size : 3.01 GiB (6%)
Title : Rambo.III.1988.2160p.BluRay.REMUX.HEVC.DTS-HD.MA.5.1-FGT
Language : English
Default : Yes
Forced : No

Audio #2
ID : 3
Format : DTS XLL
Format/Info : Digital Theater Systems
Commercial name : DTS-HD Master Audio
Codec ID : A_DTS
Duration : 1 h 41 min
Bit rate mode : Variable
Bit rate : 2 075 kb/s
Channel(s) : 2 channels
Channel layout : L R
Sampling rate : 48.0 kHz
Frame rate : 93.750 FPS (512 SPF)
Bit depth : 24 bits
Compression mode : Lossless
Stream size : 1.47 GiB (3%)
Title : Rambo.III.1988.2160p.BluRay.REMUX.HEVC.DTS-HD.MA.5.1-FGT
Language : English
Default : No
Forced : No

Audio #3
ID : 4
Format : DTS XLL
Format/Info : Digital Theater Systems
Commercial name : DTS-HD Master Audio
Codec ID : A_DTS
Duration : 1 h 41 min
Bit rate mode : Variable
Bit rate : 4 208 kb/s
Channel(s) : 6 channels
Channel layout : C L R Ls Rs LFE
Sampling rate : 48.0 kHz
Frame rate : 93.750 FPS (512 SPF)
Bit depth : 24 bits
Compression mode : Lossless
Stream size : 2.98 GiB (6%)
Title : Rambo.III.1988.2160p.BluRay.REMUX.HEVC.DTS-HD.MA.5.1-FGT
Language : German
Default : No
Forced : No

Audio #4
ID : 5
Format : DTS XLL
Format/Info : Digital Theater Systems
Commercial name : DTS-HD Master Audio
Codec ID : A_DTS
Duration : 1 h 41 min
Bit rate mode : Variable
Bit rate : 4 399 kb/s
Channel(s) : 6 channels
Channel layout : C L R Ls Rs LFE
Sampling rate : 48.0 kHz
Frame rate : 93.750 FPS (512 SPF)
Bit depth : 24 bits
Compression mode : Lossless
Stream size : 3.12 GiB (6%)
Title : Rambo.III.1988.2160p.BluRay.REMUX.HEVC.DTS-HD.MA.5.1-FGT
Language : French
Default : No
Forced : No

Text #1
ID : 6
Format : PGS
Muxing mode : zlib
Codec ID : S_HDMV/PGS
Codec ID/Info : Picture based subtitle format used on BDs/HD-DVDs
Duration : 1 h 30 min
Bit rate : 13.7 kb/s
Count of elements : 966
Stream size : 8.90 MiB (0%)
Title : English-PGS
Language : English
Default : Yes
Forced : No

Text #2
ID : 7
Format : PGS
Muxing mode : zlib
Codec ID : S_HDMV/PGS
Codec ID/Info : Picture based subtitle format used on BDs/HD-DVDs
Duration : 1 h 32 min
Bit rate : 12.9 kb/s
Count of elements : 1070
Stream size : 8.61 MiB (0%)
Title : French-PGS
Language : French
Default : No
Forced : No

Text #3
ID : 8
Format : PGS
Muxing mode : zlib
Codec ID : S_HDMV/PGS
Codec ID/Info : Picture based subtitle format used on BDs/HD-DVDs
Duration : 1 h 33 min
Bit rate : 15.0 kb/s
Count of elements : 984
Stream size : 9.96 MiB (0%)
Title : German-PGS
Language : German
Default : No
Forced : No

Text #4
ID : 9
Format : PGS
Muxing mode : zlib
Codec ID : S_HDMV/PGS
Codec ID/Info : Picture based subtitle format used on BDs/HD-DVDs
Duration : 31 min 54 s
Bit rate : 907 b/s
Count of elements : 26
Stream size : 212 KiB (0%)
Title : German-PGS
Language : German
Default : No
Forced : No

Text #5
ID : 10
Format : PGS
Muxing mode : zlib
Codec ID : S_HDMV/PGS
Codec ID/Info : Picture based subtitle format used on BDs/HD-DVDs
Duration : 31 min 54 s
Bit rate : 943 b/s
Count of elements : 26
Stream size : 221 KiB (0%)
Title : French-PGS
Language : French
Default : No
Forced : No

Text #6
ID : 11
Format : PGS
Muxing mode : zlib
Codec ID : S_HDMV/PGS
Codec ID/Info : Picture based subtitle format used on BDs/HD-DVDs
Duration : 18 min 49 s
Bit rate : 1 212 b/s
Count of elements : 24
Stream size : 167 KiB (0%)
Title : English-FORCED-PGS
Language : English
Default : No
Forced : No

Text #7
ID : 12
Format : PGS
Muxing mode : zlib
Codec ID : S_HDMV/PGS
Codec ID/Info : Picture based subtitle format used on BDs/HD-DVDs
Duration : 1 h 40 min
Bit rate : 24.2 kb/s
Count of elements : 1244
Stream size : 17.5 MiB (0%)
Title : German-FORCED-PGS
Language : German
Default : No
Forced : No

Text #8
ID : 13
Format : PGS
Muxing mode : zlib
Codec ID : S_HDMV/PGS
Codec ID/Info : Picture based subtitle format used on BDs/HD-DVDs
Duration : 1 h 40 min
Bit rate : 30.4 kb/s
Count of elements : 2070
Stream size : 21.9 MiB (0%)
Title : French-FORCED-PGS
Language : French
Default : No
Forced : No

Menu
00:00:00.000 : :Chapter 1
00:07:19.458 : :Chapter 2
00:14:30.375 : :Chapter 3
00:25:23.000 : :Chapter 4
00:30:14.250 : :Chapter 5
00:36:18.666 : :Chapter 6
00:48:47.166 : :Chapter 7
00:58:49.375 : :Chapter 8
01:09:51.458 : :Chapter 9
01:17:14.958 : :Chapter 10
01:26:29.500 : :Chapter 11
01:34:47.166 : :Chapter 12



1 个附件 售价 大小 下载 时间

Rambo.III.1988.2160p.BluRay.REMUX.HEVC.DTS-HD.MA.5.1-FGT[btbtt.me].torrent 0 金币 128.76K 728 次 7天前

#1楼
发帖时间:2018-11-08 23:48:22   |   回复数:4
liyouchai
超凡入圣№
谢谢楼主分享资源
7天前 #2楼
911degrees
隐世仙人♂
非常感谢,谢谢分享
7天前 #3楼
yangbo83222179
一代宗师
谢谢楼主分享,支持一下
7天前 #4楼
blue23
隐世仙人♂
感谢楼主分享
5天前 #5楼
游客组