aoloffline
版主

[更 早] [欧美] [动作] [4K-Remux] [ВТ下载]第一滴血2 1985.2160p.BluRay.REMUX.HEVC.DTS-HD.MA.5.1-FGT 52GB

-->

Rambo.First.Blood.Part.II.1985.2160p.BluRay.REMUX.HEVC.DTS-HD.MA.5.1-FGT

◎译  名 第一滴血2 / 兰博2

◎片  名 Rambo: First Blood Part II

◎年  代 1985

◎产  地 美国

◎类  别 动作 / 惊悚 / 冒险

◎语  言 英语 / 越南语

◎上映日期 1985-05-22(美国)

◎IMDb评分 6.4/10 from 133555 users

◎IMDb链接 http://www.imdb.com/title/tt0089880

◎豆瓣评分 7.7/10 from 26071 users

◎豆瓣链接 https://movie.douban.com/subject/1300361/

◎片  长 96 分钟

◎导  演 George P. Cosmatos

◎编  剧 Sylvester Stallone / James Cameron / Kevin Jarre / David Morrell / George Cheung

◎主  演 Sylvester Stallone

      Richard Crenna

      Steven Berkoff

      Charles Napier

      Julia Nickson-Soul

      Martin Kove





◎简  介  


  神勇的蓝波(西尔维斯特•史泰龙 Sylvester Stallone 饰)又回来了!这次,蓝波奉命返回越南调查失踪的美军是否已成为战俘。然而,蓝波甫一登陆越南,所有装备和武器都丢失了!随身剩下的,只有一把军刀和一套军用弓箭。

身处逆境的蓝波,偶然发现了出卖他的正是自己的部队!蓝波在九死一生之际,得到了当地一名越南少女的帮助。在少女的帮助下,蓝波凭借其高超的求生技能和坚强的意志,克服了一切困难,终于逃出生天。

蓝波决定向出卖他的人重拳出击!


Video
ID : 1
Format : HEVC
Format/Info : High Efficiency Video Coding
Commercial name : HDR10
Format profile : Main 10@L5.1@High
Codec ID : V_MPEGH/ISO/HEVC
Duration : 1 h 35 min
Bit rate : 64.2 Mb/s
Width : 3 840 pixels
Height : 2 160 pixels
Display aspect ratio : 16:9
Frame rate mode : Constant
Frame rate : 24.000 FPS
Color space : YUV
Chroma subsampling : 4:2:0 (Type 2)
Bit depth : 10 bits
Bits/(Pixel*Frame) : 0.323
Stream size : 43.0 GiB (81%)
Title : Rambo.First.Blood.Part.II.1985.2160p.BluRay.REMUX.HEVC.DTS-HD.MA.5.1-FGT
Writing library : ATEME Titan File 3.8.22 (4.8.22.0) 
Default : Yes
Forced : No
Color range : Limited
Color primaries : BT.2020
Transfer characteristics : PQ
Matrix coefficients : BT.2020 non-constant
Mastering display color primaries : Display P3
Mastering display luminance : min: 0.0001 cd/m2, max: 1000 cd/m2
Maximum Content Light Level : 479 cd/m2
Maximum Frame-Average Light Level : 464 cd/m2

Audio #1
ID : 2
Format : DTS XLL
Format/Info : Digital Theater Systems
Commercial name : DTS-HD Master Audio
Codec ID : A_DTS
Duration : 1 h 35 min
Bit rate mode : Variable
Bit rate : 4 174 kb/s
Channel(s) : 6 channels
Channel layout : C L R Ls Rs LFE
Sampling rate : 48.0 kHz
Frame rate : 93.750 FPS (512 SPF)
Bit depth : 24 bits
Compression mode : Lossless
Stream size : 2.79 GiB (5%)
Title : Rambo.First.Blood.Part.II.1985.2160p.BluRay.REMUX.HEVC.DTS-HD.MA.5.1-FGT
Language : English
Default : Yes
Forced : No

Audio #2
ID : 3
Format : DTS XLL
Format/Info : Digital Theater Systems
Commercial name : DTS-HD Master Audio
Codec ID : A_DTS
Duration : 1 h 35 min
Bit rate mode : Variable
Bit rate : 4 077 kb/s
Channel(s) : 6 channels
Channel layout : C L R Ls Rs LFE
Sampling rate : 48.0 kHz
Frame rate : 93.750 FPS (512 SPF)
Bit depth : 24 bits
Compression mode : Lossless
Stream size : 2.73 GiB (5%)
Title : Rambo.First.Blood.Part.II.1985.2160p.BluRay.REMUX.HEVC.DTS-HD.MA.5.1-FGT
Language : French
Default : No
Forced : No

Audio #3
ID : 4
Format : DTS XLL
Format/Info : Digital Theater Systems
Commercial name : DTS-HD Master Audio
Codec ID : A_DTS
Duration : 1 h 35 min
Bit rate mode : Variable
Bit rate : 4 532 kb/s
Channel(s) : 6 channels
Channel layout : C L R Ls Rs LFE
Sampling rate : 48.0 kHz
Frame rate : 93.750 FPS (512 SPF)
Bit depth : 24 bits
Compression mode : Lossless
Stream size : 3.03 GiB (6%)
Title : Rambo.First.Blood.Part.II.1985.2160p.BluRay.REMUX.HEVC.DTS-HD.MA.5.1-FGT
Language : German
Default : No
Forced : No

Audio #4
ID : 5
Format : DTS XLL
Format/Info : Digital Theater Systems
Commercial name : DTS-HD Master Audio
Codec ID : A_DTS
Duration : 1 h 35 min
Bit rate mode : Variable
Bit rate : 1 348 kb/s
Channel(s) : 2 channels
Channel layout : L R
Sampling rate : 48.0 kHz
Frame rate : 93.750 FPS (512 SPF)
Bit depth : 24 bits
Compression mode : Lossless
Stream size : 924 MiB (2%)
Title : Rambo.First.Blood.Part.II.1985.2160p.BluRay.REMUX.HEVC.DTS-HD.MA.5.1-FGT
Language : German
Default : No
Forced : No

Audio #5
ID : 6
Format : DTS
Format/Info : Digital Theater Systems
Codec ID : A_DTS
Duration : 1 h 35 min
Bit rate mode : Constant
Bit rate : 318 kb/s
Channel(s) : 2 channels
Channel layout : L R
Sampling rate : 48.0 kHz
Frame rate : 93.750 FPS (512 SPF)
Bit depth : 24 bits
Compression mode : Lossy
Stream size : 218 MiB (0%)
Title : Rambo.First.Blood.Part.II.1985.2160p.BluRay.REMUX.HEVC.DTS-HD.MA.5.1-FGT
Language : English
Default : No
Forced : No

Audio #6
ID : 7
Format : DTS
Format/Info : Digital Theater Systems
Codec ID : A_DTS
Duration : 1 h 35 min
Bit rate mode : Constant
Bit rate : 318 kb/s
Channel(s) : 2 channels
Channel layout : L R
Sampling rate : 48.0 kHz
Frame rate : 93.750 FPS (512 SPF)
Bit depth : 24 bits
Compression mode : Lossy
Stream size : 218 MiB (0%)
Title : Rambo.First.Blood.Part.II.1985.2160p.BluRay.REMUX.HEVC.DTS-HD.MA.5.1-FGT
Language : English
Default : No
Forced : No

Text #1
ID : 8
Format : PGS
Muxing mode : zlib
Codec ID : S_HDMV/PGS
Codec ID/Info : Picture based subtitle format used on BDs/HD-DVDs
Duration : 1 h 34 min
Bit rate : 10.4 kb/s
Count of elements : 882
Stream size : 7.06 MiB (0%)
Title : English-PGS
Language : English
Default : Yes
Forced : No

Text #2
ID : 9
Format : PGS
Muxing mode : zlib
Codec ID : S_HDMV/PGS
Codec ID/Info : Picture based subtitle format used on BDs/HD-DVDs
Duration : 1 h 31 min
Bit rate : 11.7 kb/s
Count of elements : 842
Stream size : 7.68 MiB (0%)
Title : German-PGS
Language : German
Default : No
Forced : No

Text #3
ID : 10
Format : PGS
Muxing mode : zlib
Codec ID : S_HDMV/PGS
Codec ID/Info : Picture based subtitle format used on BDs/HD-DVDs
Duration : 1 h 31 min
Bit rate : 9 569 b/s
Count of elements : 960
Stream size : 6.26 MiB (0%)
Title : French-PGS
Language : French
Default : No
Forced : No

Text #4
ID : 11
Format : PGS
Muxing mode : zlib
Codec ID : S_HDMV/PGS
Codec ID/Info : Picture based subtitle format used on BDs/HD-DVDs
Duration : 1 h 33 min
Bit rate : 19.2 kb/s
Count of elements : 1230
Stream size : 12.8 MiB (0%)
Title : German-FORCED-PGS
Language : German
Default : No
Forced : No

Text #5
ID : 12
Format : PGS
Muxing mode : zlib
Codec ID : S_HDMV/PGS
Codec ID/Info : Picture based subtitle format used on BDs/HD-DVDs
Duration : 1 h 35 min
Bit rate : 24.3 kb/s
Count of elements : 1908
Stream size : 16.5 MiB (0%)
Title : French-FORCED-PGS
Language : French
Default : No
Forced : No

Text #6
ID : 13
Format : PGS
Muxing mode : zlib
Codec ID : S_HDMV/PGS
Codec ID/Info : Picture based subtitle format used on BDs/HD-DVDs
Duration : 4 s 542 ms
Bit rate : 21.8 kb/s
Count of elements : 2
Stream size : 12.1 KiB (0%)
Title : French-FORCED-PGS
Language : French
Default : No
Forced : No

Menu
00:00:00.000 : :Chapter 1
00:09:02.083 : :Chapter 2
00:17:38.208 : :Chapter 3
00:26:11.625 : :Chapter 4
00:35:21.666 : :Chapter 5
00:45:45.541 : :Chapter 6
00:55:17.791 : :Chapter 7
01:06:15.083 : :Chapter 8
01:15:45.458 : :Chapter 9
01:26:23.666 : :Chapter 10



1 个附件 售价 大小 下载 时间

Rambo.First.Blood.Part.II.1985.2160p.BluRay.REMUX.HEVC.DTS-HD.MA.5.1-FGT[btbtt.me].torrent 0 金币 132.85K 742 次 7天前

#1楼
发帖时间:2018-11-08 23:45:37   |   回复数:4
liyouchai
超凡入圣№
谢谢楼主分享资源
7天前 #2楼
911degrees
隐世仙人♂
非常感谢,谢谢分享
7天前 #3楼
yangbo83222179
一代宗师
谢谢楼主分享,支持一下
7天前 #4楼
blue23
隐世仙人♂
感谢楼主分享
5天前 #5楼
游客组