aoloffline
版主

[2010] [欧美] [惊悚] [BD-1080P] [BT下载]机关枪修女 Nude.Nuns.With.Big.Guns.2010.1080p.BluRay.x264-7SinS 6.5GB

-->

Nude.Nuns.With.Big.Guns.2010.1080p.BluRay.x264-7SinS

◎译  名 机关枪修女/带枪的裸体修女/霹雳修女

◎片  名 Nude Nuns with Big Guns

◎年  代 2010

◎产  地 美国

◎类  别 惊悚

◎语  言 英语

◎上映日期 2010-02-02

◎IMDb评分  3.9/10 from 5,051 users

◎IMDb链接  http://www.imdb.com/title/tt1352388/

◎豆瓣评分 4.7/10 from 966 users

◎豆瓣链接 https://movie.douban.com/subject/3431661/

◎BT之家整理 http://www.btbtt.co 

◎片  长 90分钟

◎导  演 Joseph Guzman

◎主  演 Bill Oberst Jr.

      德瓦尼·平 Devanny Pinn

      Tawny Amber Young


◎简  介


  罪孽横行的墨西哥某地,连神职人员也自甘堕落。某教堂主教与毒品贩子查沃(戴维·卡斯托 David Castro 饰)相勾结,强迫修女们制作、运输毒品。在一次毒品交易过程中,一包丢失的白粉导致两名修女被杀,侥幸逃生的莎拉修女(Asun Ortega 饰)则被查沃抓进自己的娼馆,更遭到非人的虐待。奄奄一息的莎拉修女得到某个黑市医生的救助,她似乎在昏迷中听到了上帝的教导,指引她拿起武器荡涤世界上的肮脏与罪恶。

  一年之后,莎拉修女卷土重来,对堕落的神职人员展开了血腥的大清洗,更将最终目标锁定在恶贯满盈的查沃身上。神罚降临,无人能免……


Video
ID : 1
Format : AVC
Format/Info : Advanced Video Codec
Format profile : High@L4.1
Format settings : CABAC / 4 Ref Frames
Format settings, CABAC : Yes
Format settings, ReFrames : 4 frames
Codec ID : V_MPEG4/ISO/AVC
Duration : 1 h 31 min
Bit rate : 8 723 kb/s
Width : 1 920 pixels
Height : 1 080 pixels
Display aspect ratio : 16:9
Frame rate mode : Constant
Frame rate : 23.976 (23976/1000) FPS
Color space : YUV
Chroma subsampling : 4:2:0
Bit depth : 8 bits
Scan type : Progressive
Bits/(Pixel*Frame) : 0.175
Stream size : 5.46 GiB (83%)
Writing library : x264 core 115 r1937 aa21558
Encoding settings : cabac=1 / ref=4 / deblock=1:0:0 / analyse=0x3:0x133 / me=umh / subme=7 / psy=1 / psy_rd=1.00:0.00 / mixed_ref=1 / me_range=16 / chroma_me=1 / trellis=1 / 8x8dct=1 / cqm=0 / deadzone=21,11 / fast_pskip=0 / chroma_qp_offset=-2 / threads=12 / sliced_threads=0 / nr=0 / decimate=1 / interlaced=0 / bluray_compat=0 / constrained_intra=0 / bframes=3 / b_pyramid=2 / b_adapt=1 / b_bias=0 / direct=1 / weightb=1 / open_gop=0 / weightp=2 / keyint=250 / keyint_min=23 / scenecut=40 / intra_refresh=0 / rc_lookahead=40 / rc=2pass / mbtree=1 / bitrate=8723 / ratetol=1.0 / qcomp=0.60 / qpmin=0 / qpmax=69 / qpstep=4 / cplxblur=20.0 / qblur=0.5 / ip_ratio=1.40 / aq=1:1.00
Language : English
Default : Yes
Forced : No

Audio
ID : 2
Format : DTS
Format/Info : Digital Theater Systems
Codec ID : A_DTS
Duration : 1 h 31 min
Bit rate mode : Constant
Bit rate : 1 509 kb/s
Channel(s) : 2 channels
Channel positions : Front: L R
Sampling rate : 48.0 kHz
Frame rate : 93.750 FPS (512 SPF)
Bit depth : 24 bits
Compression mode : Lossy
Stream size : 990 MiB (15%)
Language : English
Default : Yes
Forced : No



1 个附件 售价 大小 下载 时间

Nude.Nuns.With.Big.Guns.2010.1080p.BluRay.x264-7SinS[btbtt.me].torrent 0 金币 66.05K 1393 次 3月前

#1楼
发帖时间:2018-08-10 19:58:57   |   回复数:3
liyouchai
超凡入圣№
谢谢楼主分享资源
3月前 #2楼
911degrees
隐世仙人♂
非常感谢,谢谢分享
3月前 #3楼
blue23
隐世仙人♂
感谢楼主分享
3月前 #4楼
游客组