aoloffline
版主

[更 早] [欧美] [动画] [BD-Remux] [BT下载]猫儿历险记 The.Aristocats.1970.1080p.BluRay.REMUX.AVC.DTS-HD.MA.5.1-FGT 17.9GB

-->

The.Aristocats.1970.1080p.BluRay.REMUX.AVC.DTS-HD.MA.5.1-FGT

◎译  名 猫儿历险记/富贵猫/贵族猫

◎片  名 The Aristocats

◎年  代 1970

◎产  地 美国

◎类  别 喜剧/动画/冒险/音乐

◎语  言 英语

◎上映日期 1970-12-24(美国)

◎IMDb评分  7.1/10 from 77,389 users

◎IMDb链接  http://www.imdb.com/title/tt0065421/

◎豆瓣评分 8.2/10 from 1,592 users

◎豆瓣链接 https://movie.douban.com/subject/1299122/

◎BT之家整理 http://www.btbtt.co

◎片  长 78分钟

◎导  演 沃夫冈·雷瑟曼 Wolfgang Reitherman

◎主  演 菲尔·哈里斯  Phil Harris

      伊娃·嘉宝 Eva Gabor

      斯特灵·哈洛威 Sterling Holloway

      斯加特克罗索斯 Scatman Crothers

      Dean Clark

      保罗·温切尔 Paul Winchell

      Liz English

      瑟尔·莱文斯克洛福特 Thurl Ravenscroft

      Gary Dubin

      维托·斯科蒂 Vito Scotti

      Lord Tim Hudson


◎简  介


  故事发生在繁华的大都市巴黎,一位善良的贵妇决定将自己的巨额财产留给一直陪伴她的宠物猫“女公爵”(伊娃·嘉宝 Eva Gabor 配音)以及它尚未长大的孩子们,贪婪的管家得知了这一消息,开始打起了这笔遗产的主意。一天深夜,管家趁着夜幕偷偷将女公爵和它的孩子们丢在了杂草丛生荒无人烟的乡下,在他心中的算盘上,只要没了这些碍事的猫咪们,自己继承遗产简直如同囊中探物。

  寒冷和饥饿时时威胁着女公爵一家人的性命,幸运的是,一只名叫托马斯(菲尔·哈里斯 Phil Harris 配音)的野猫在紧要关头出现在了女公爵的面前。在托马斯的帮助下,小猫们不仅健康成长,女公爵也学到了许多为猫处世的宝贵道理,最终,它们不仅顺利回到了巴黎,揭穿了管家的虚伪假面,女公爵和托马斯之间还上演了一段浪漫的情缘。



Video
ID : 1
Format : AVC
Format/Info : Advanced Video Codec
Format profile : High@L4.1
Format settings : CABAC / 4 Ref Frames
Format settings, CABAC : Yes
Format settings, ReFrames : 4 frames
Codec ID : V_MPEG4/ISO/AVC
Duration : 1 h 18 min
Bit rate mode : Variable
Bit rate : 23.4 Mb/s
Maximum bit rate : 24.0 Mb/s
Width : 1 920 pixels
Height : 1 080 pixels
Display aspect ratio : 16:9
Frame rate mode : Constant
Frame rate : 23.976 (24000/1001) FPS
Color space : YUV
Chroma subsampling : 4:2:0
Bit depth : 8 bits
Scan type : Progressive
Bits/(Pixel*Frame) : 0.471
Stream size : 12.8 GiB (72%)
Title : The.Aristocats.1970.1080p.BluRay.REMUX.AVC.DTS-HD.MA.5.1-FGT
Language : English
Default : No
Forced : No

Audio #1
ID : 2
Format : DTS
Format/Info : Digital Theater Systems
Format profile : MA / Core
Codec ID : A_DTS
Duration : 1 h 18 min
Bit rate mode : Variable / Constant
Bit rate : 3 467 kb/s / 1 509 kb/s
Channel(s) : 6 channels
Channel positions : Front: L C R, Side: L R, LFE
Sampling rate : 48.0 kHz
Frame rate : 93.750 FPS (512 SPF)
Bit depth : 24 bits
Compression mode : Lossless / Lossy
Stream size : 1.90 GiB (11%)
Title : The.Aristocats.1970.1080p.BluRay.REMUX.AVC.DTS-HD.MA.5.1-FGT
Language : English
Default : Yes
Forced : No

Audio #2
ID : 3
Format : DTS
Format/Info : Digital Theater Systems
Codec ID : A_DTS
Duration : 1 h 18 min
Bit rate mode : Constant
Bit rate : 1 509 kb/s
Channel(s) : 6 channels
Channel positions : Front: L C R, Side: L R, LFE
Sampling rate : 48.0 kHz
Frame rate : 93.750 FPS (512 SPF)
Bit depth : 24 bits
Compression mode : Lossy
Stream size : 847 MiB (5%)
Title : The.Aristocats.1970.1080p.BluRay.REMUX.AVC.DTS-HD.MA.5.1-FGT
Language : English
Default : No
Forced : No

Audio #3
ID : 4
Format : AC-3
Format/Info : Audio Coding 3
Codec ID : A_AC3
Duration : 1 h 18 min
Bit rate mode : Constant
Bit rate : 640 kb/s
Channel(s) : 6 channels
Channel positions : Front: L C R, Side: L R, LFE
Sampling rate : 48.0 kHz
Frame rate : 31.250 FPS (1536 SPF)
Bit depth : 16 bits
Compression mode : Lossy
Stream size : 359 MiB (2%)
Title : The.Aristocats.1970.1080p.BluRay.REMUX.AVC.DTS-HD.MA.5.1-FGT
Language : Polish
Service kind : Complete Main
Default : No
Forced : No

Audio #4
ID : 5
Format : AC-3
Format/Info : Audio Coding 3
Codec ID : A_AC3
Duration : 1 h 18 min
Bit rate mode : Constant
Bit rate : 640 kb/s
Channel(s) : 6 channels
Channel positions : Front: L C R, Side: L R, LFE
Sampling rate : 48.0 kHz
Frame rate : 31.250 FPS (1536 SPF)
Bit depth : 16 bits
Compression mode : Lossy
Stream size : 359 MiB (2%)
Title : The.Aristocats.1970.1080p.BluRay.REMUX.AVC.DTS-HD.MA.5.1-FGT
Language : Czech
Service kind : Complete Main
Default : No
Forced : No

Audio #5
ID : 6
Format : AC-3
Format/Info : Audio Coding 3
Codec ID : A_AC3
Duration : 1 h 18 min
Bit rate mode : Constant
Bit rate : 640 kb/s
Channel(s) : 6 channels
Channel positions : Front: L C R, Side: L R, LFE
Sampling rate : 48.0 kHz
Frame rate : 31.250 FPS (1536 SPF)
Bit depth : 16 bits
Compression mode : Lossy
Stream size : 359 MiB (2%)
Title : The.Aristocats.1970.1080p.BluRay.REMUX.AVC.DTS-HD.MA.5.1-FGT
Language : Hungarian
Service kind : Complete Main
Default : No
Forced : No

Audio #6
ID : 7
Format : AC-3
Format/Info : Audio Coding 3
Codec ID : A_AC3
Duration : 1 h 18 min
Bit rate mode : Constant
Bit rate : 640 kb/s
Channel(s) : 6 channels
Channel positions : Front: L C R, Side: L R, LFE
Sampling rate : 48.0 kHz
Frame rate : 31.250 FPS (1536 SPF)
Bit depth : 16 bits
Compression mode : Lossy
Stream size : 359 MiB (2%)
Title : The.Aristocats.1970.1080p.BluRay.REMUX.AVC.DTS-HD.MA.5.1-FGT
Language : Greek
Service kind : Complete Main
Default : No
Forced : No

Audio #7
ID : 8
Format : AC-3
Format/Info : Audio Coding 3
Codec ID : A_AC3
Duration : 1 h 18 min
Bit rate mode : Constant
Bit rate : 640 kb/s
Channel(s) : 6 channels
Channel positions : Front: L C R, Side: L R, LFE
Sampling rate : 48.0 kHz
Frame rate : 31.250 FPS (1536 SPF)
Bit depth : 16 bits
Compression mode : Lossy
Stream size : 359 MiB (2%)
Title : The.Aristocats.1970.1080p.BluRay.REMUX.AVC.DTS-HD.MA.5.1-FGT
Language : Romanian
Service kind : Complete Main
Default : No
Forced : No

Audio #8
ID : 9
Format : AC-3
Format/Info : Audio Coding 3
Codec ID : A_AC3
Duration : 1 h 18 min
Bit rate mode : Constant
Bit rate : 640 kb/s
Channel(s) : 6 channels
Channel positions : Front: L C R, Side: L R, LFE
Sampling rate : 48.0 kHz
Frame rate : 31.250 FPS (1536 SPF)
Bit depth : 16 bits
Compression mode : Lossy
Stream size : 359 MiB (2%)
Title : The.Aristocats.1970.1080p.BluRay.REMUX.AVC.DTS-HD.MA.5.1-FGT
Language : Arabic
Service kind : Complete Main
Default : No
Forced : No

Audio #9
ID : 10
Format : AC-3
Format/Info : Audio Coding 3
Codec ID : A_AC3
Duration : 1 h 18 min
Bit rate mode : Constant
Bit rate : 320 kb/s
Channel(s) : 2 channels
Channel positions : Front: L R
Sampling rate : 48.0 kHz
Frame rate : 31.250 FPS (1536 SPF)
Bit depth : 16 bits
Compression mode : Lossy
Stream size : 180 MiB (1%)
Title : The.Aristocats.1970.1080p.BluRay.REMUX.AVC.DTS-HD.MA.5.1-FGT
Language : Russian
Service kind : Complete Main
Default : No
Forced : No

Text #1
ID : 11
Format : PGS
Muxing mode : zlib
Codec ID : S_HDMV/PGS
Codec ID/Info : Picture based subtitle format used on BDs/HD-DVDs
Duration : 1 h 18 min
Bit rate : 34.4 kb/s
Count of elements : 2072
Stream size : 19.2 MiB (0%)
Title : English-PGS
Language : English
Default : Yes
Forced : No

Text #2
ID : 12
Format : PGS
Muxing mode : zlib
Codec ID : S_HDMV/PGS
Codec ID/Info : Picture based subtitle format used on BDs/HD-DVDs
Duration : 1 h 18 min
Bit rate : 40.3 kb/s
Count of elements : 2522
Stream size : 22.6 MiB (0%)
Title : English-PGS
Language : English
Default : No
Forced : No

Text #3
ID : 13
Format : PGS
Muxing mode : zlib
Codec ID : S_HDMV/PGS
Codec ID/Info : Picture based subtitle format used on BDs/HD-DVDs
Duration : 1 h 18 min
Bit rate : 28.4 kb/s
Count of elements : 1998
Stream size : 15.8 MiB (0%)
Title : Polish_PGS
Language : Polish
Default : No
Forced : No

Text #4
ID : 14
Format : PGS
Muxing mode : zlib
Codec ID : S_HDMV/PGS
Codec ID/Info : Picture based subtitle format used on BDs/HD-DVDs
Duration : 1 h 18 min
Bit rate : 33.5 kb/s
Count of elements : 2088
Stream size : 18.7 MiB (0%)
Title : Czech-PGS
Language : Czech
Default : No
Forced : No

Text #5
ID : 15
Format : PGS
Muxing mode : zlib
Codec ID : S_HDMV/PGS
Codec ID/Info : Picture based subtitle format used on BDs/HD-DVDs
Duration : 1 h 18 min
Bit rate : 34.4 kb/s
Count of elements : 2092
Stream size : 19.3 MiB (0%)
Title : Hungarian-PGS
Language : Hungarian
Default : No
Forced : No

Text #6
ID : 16
Format : PGS
Muxing mode : zlib
Codec ID : S_HDMV/PGS
Codec ID/Info : Picture based subtitle format used on BDs/HD-DVDs
Duration : 1 h 18 min
Bit rate : 33.8 kb/s
Count of elements : 2090
Stream size : 18.9 MiB (0%)
Title : Greek-PGS
Language : Greek
Default : No
Forced : No

Text #7
ID : 17
Format : PGS
Muxing mode : zlib
Codec ID : S_HDMV/PGS
Codec ID/Info : Picture based subtitle format used on BDs/HD-DVDs
Duration : 1 h 18 min
Bit rate : 31.0 kb/s
Count of elements : 2088
Stream size : 17.3 MiB (0%)
Title : Romanian-PGS
Language : Romanian
Default : No
Forced : No

Text #8
ID : 18
Format : PGS
Muxing mode : zlib
Codec ID : S_HDMV/PGS
Codec ID/Info : Picture based subtitle format used on BDs/HD-DVDs
Duration : 1 h 18 min
Bit rate : 18.9 kb/s
Count of elements : 2092
Stream size : 10.6 MiB (0%)
Title : Arabic-PGS
Language : Arabic
Default : No
Forced : No

Text #9
ID : 19
Format : PGS
Muxing mode : zlib
Codec ID : S_HDMV/PGS
Codec ID/Info : Picture based subtitle format used on BDs/HD-DVDs
Duration : 1 h 18 min
Bit rate : 34.1 kb/s
Count of elements : 2092
Stream size : 19.1 MiB (0%)
Title : Russian-PGS
Language : Russian
Default : No
Forced : No

Text #10
ID : 20
Format : PGS
Muxing mode : zlib
Codec ID : S_HDMV/PGS
Codec ID/Info : Picture based subtitle format used on BDs/HD-DVDs
Duration : 1 h 18 min
Bit rate : 33.1 kb/s
Count of elements : 2092
Stream size : 18.5 MiB (0%)
Title : Ukranian-PGS
Language : Ukrainian
Default : No
Forced : No

Text #11
ID : 21
Format : PGS
Muxing mode : zlib
Codec ID : S_HDMV/PGS
Codec ID/Info : Picture based subtitle format used on BDs/HD-DVDs
Duration : 1 h 18 min
Bit rate : 31.8 kb/s
Count of elements : 2088
Stream size : 17.8 MiB (0%)
Title : Slovak-PGS
Language : Slovak
Default : No
Forced : No

Text #12
ID : 22
Format : PGS
Muxing mode : zlib
Codec ID : S_HDMV/PGS
Codec ID/Info : Picture based subtitle format used on BDs/HD-DVDs
Duration : 1 h 17 min
Bit rate : 192 b/s
Count of elements : 16
Stream size : 110 KiB (0%)
Title : Polish-PGS
Language : Polish
Default : No
Forced : No

Menu
00:00:00.000 : en:Chapter 01
00:03:46.559 : en:Chapter 02
00:07:14.892 : en:Chapter 03
00:12:15.943 : en:Chapter 04
00:16:50.551 : en:Chapter 05
00:21:53.603 : en:Chapter 06
00:26:13.905 : en:Chapter 07
00:32:27.737 : en:Chapter 08
00:35:26.415 : en:Chapter 09
00:38:14.125 : en:Chapter 10
00:42:14.156 : en:Chapter 11
00:48:01.712 : en:Chapter 12
00:49:03.690 : en:Chapter 13
00:55:36.291 : en:Chapter 14
00:58:08.693 : en:Chapter 15
01:02:29.495 : en:Chapter 16
01:06:26.315 : en:Chapter 17
01:10:05.409 : en:Chapter 18
01:12:33.849 : en:Chapter 19
01:15:26.897 : en:Chapter 20




1 个附件 售价 大小 下载 时间

The.Aristocats.1970.1080p.BluRay.REMUX.AVC.DTS-HD.MA.5.1-FGT[btbtt.me].torrent 0 金币 90.07K 606 次 3月前

#1楼
发帖时间:2018-08-10 17:45:50   |   回复数:4
二月妙
一派掌门
大猫咪,白色的好可爱好美的蝴蝶对号
3月前 #2楼
liyouchai
超凡入圣№
谢谢楼主分享资源
3月前 #3楼
911degrees
隐世仙人♂
非常感谢,谢谢分享
3月前 #4楼
blue23
隐世仙人♂
感谢楼主分享
3月前 #5楼
游客组