aoloffline
版主

[2016] [欧美] [惊悚] [BD-Remux] [BT下载]孕中惊魂/劫孕 Inside.2016.1080p.BluRay.REMUX.AVC.DTS-HD.MA.5.1-FGT 24GB

-->

Inside.2016.1080p.BluRay.REMUX.AVC.DTS-HD.MA.5.1-FGT

◎译  名 孕中惊魂/劫孕(台)

◎片  名 Inside

◎年  代 2016

◎产  地 西班牙/英国/美国/法国

◎类  别 惊悚/恐怖

◎语  言 英语

◎上映日期 2016-10-07(锡切斯电影节)/2017-07-28(西班牙)

◎IMDb评分  5.3/10 from 2,333 users

◎IMDb链接  http://www.imdb.com/title/tt5170810/

◎豆瓣评分 4.3/10 from 339 users

◎豆瓣链接 https://movie.douban.com/subject/26846564/

◎BT之家整理 http://www.btbtt.co

◎片  长 100分钟

◎导  演 米古尔·安格尔·维瓦斯 Miguel Ángel Vivas

◎主  演 瑞秋·尼科尔斯 Rachel Nichols

      劳拉·哈灵 Laura Harring

      安德里亚·提瓦塔 Andrea Tivadar

      斯塔尼·科佩 Stany Coppet

      克雷格·史蒂文森 Craig Stevenson

      Maarten Swaan

      本·坦普尔 Ben Temple

      Richard Felix

      Steve Howard

      大卫·切弗斯 David Chevers


◎简  介


  准备迎接新生命的孕妇莎拉(瑞秋妮可丝 饰),遇上一场无情的车祸,不仅失去挚爱的老公,车祸也夺走了她的听觉。绝望之际,为了肚裡小孩,她选择重新振作、独自回到郊区的宁静小屋生活,就在日子渐渐恢复平静时,意想不到的厄运却突然在圣诞夜来袭!一名不速之客(萝拉贺林 饰)强行闯入,并趁着莎拉来不及防备时,将她迷昏。但诡异的是,这名抢匪的目标不是任何财物,而是莎拉肚裡的婴儿!这一个漫长的夜晚,一宗骇人的劫孕事件,一个没有出路的密室……孤立无援的莎拉要如何逃出这个人间炼狱?


Video
ID : 1
Format : AVC
Format/Info : Advanced Video Codec
Format profile : High@L4.1
Format settings : CABAC / 4 Ref Frames
Format settings, CABAC : Yes
Format settings, ReFrames : 4 frames
Codec ID : V_MPEG4/ISO/AVC
Duration : 1 h 28 min
Bit rate mode : Variable
Bit rate : 34.0 Mb/s
Maximum bit rate : 36.0 Mb/s
Width : 1 920 pixels
Height : 1 080 pixels
Display aspect ratio : 16:9
Frame rate mode : Constant
Frame rate : 24.000 FPS
Color space : YUV
Chroma subsampling : 4:2:0
Bit depth : 8 bits
Scan type : Progressive
Bits/(Pixel*Frame) : 0.682
Stream size : 21.1 GiB (86%)
Title : Inside.2016.1080p.BluRay.REMUX.AVC.DTS-HD.MA.5.1-FGT
Language : English
Default : No
Forced : No

Audio #1
ID : 2
Format : DTS
Format/Info : Digital Theater Systems
Format profile : MA / Core
Codec ID : A_DTS
Duration : 1 h 28 min
Bit rate mode : Variable / Constant
Bit rate : 4 111 kb/s / 1 509 kb/s
Channel(s) : 6 channels
Channel positions : Front: L C R, Side: L R, LFE
Sampling rate : 48.0 kHz
Frame rate : 93.750 FPS (512 SPF)
Bit depth : 24 bits
Compression mode : Lossless / Lossy
Stream size : 2.55 GiB (10%)
Title : Inside.2016.1080p.BluRay.REMUX.AVC.DTS-HD.MA.5.1-FGT
Language : English
Default : Yes
Forced : No

Audio #2
ID : 3
Format : DTS
Format/Info : Digital Theater Systems
Codec ID : A_DTS
Duration : 1 h 28 min
Bit rate mode : Constant
Bit rate : 1 509 kb/s
Channel(s) : 6 channels
Channel positions : Front: L C R, Side: L R, LFE
Sampling rate : 48.0 kHz
Frame rate : 93.750 FPS (512 SPF)
Bit depth : 24 bits
Compression mode : Lossy
Stream size : 959 MiB (4%)
Title : Inside.2016.1080p.BluRay.REMUX.AVC.DTS-HD.MA.5.1-FGT
Language : English
Default : No
Forced : No

Menu
00:00:00.000 : en:Chapter 01
00:03:34.000 : en:Chapter 02
00:08:00.083 : en:Chapter 03
00:11:32.416 : en:Chapter 04
00:16:25.125 : en:Chapter 05
00:20:53.666 : en:Chapter 06
00:26:35.208 : en:Chapter 07
00:32:42.958 : en:Chapter 08
00:38:01.875 : en:Chapter 09
00:43:15.500 : en:Chapter 10
00:48:39.916 : en:Chapter 11
00:54:12.583 : en:Chapter 12
00:59:02.875 : en:Chapter 13
01:04:52.541 : en:Chapter 14
01:10:18.041 : en:Chapter 15
01:15:52.500 : en:Chapter 16
01:20:08.291 : en:Chapter 17
01:24:45.000 : en:Chapter 18




1 个附件 售价 大小 下载 时间

Inside.2016.1080p.BluRay.REMUX.AVC.DTS-HD.MA.5.1-FGT[btbtt.me].torrent 0 金币 61.93K 420 次 11天前

#1楼
发帖时间:2018-08-10 17:41:02   |   回复数:5
gzgydxljx
小有名气
感谢楼主分享,谢谢!
11天前 #2楼
liyouchai
超凡入圣№
谢谢楼主分享资源
11天前 #3楼
911degrees
隐世仙人♂
非常感谢,谢谢分享
11天前 #4楼
chulps
一代宗师
~ 感谢分享 ~
11天前 #5楼
blue23
隐世仙人♂
感谢楼主分享
11天前 #6楼
游客组