aoloffline
版主

[2018] [欧美] [喜剧] [WEB-720P] [BT下载]根西岛文学与土豆皮馅饼俱乐部 2018.720p.NF.WEBRip.DDP5.1.x264-NTG 2.78GB

-->

自带中字

The.Guernsey.Literary.and.Potato.Peel.Pie.Society.2018.720p.NF.WEBRip.DDP5.1.x264-NTG

◎译  名 根西岛文学与土豆皮馅饼俱乐部/真爱收信中(台)/纳粹铁蹄下的密函情书(港)/根基岛的文学和土豆派协会

◎片  名 The Guernsey Literary and Potato Peel Pie Society

◎年  代 2018

◎产  地 英国/美国

◎类  别 剧情/爱情

◎语  言 英语

◎上映日期 2018-04-20(英国)

◎IMDb评分  7.1/10 from 2,525 users

◎IMDb链接  http://www.imdb.com/title/tt1289403/

◎豆瓣评分 7.3/10 from 175 users

◎豆瓣链接 https://movie.douban.com/subject/3212397/

◎BT之家整理 http://www.btbtt.co

◎片  长 124分钟

◎导  演 迈克·内威尔 Mike Newell

◎主  演 莉莉·詹姆斯 Lily James

      米契尔·哈思曼 Michiel Huisman

      格伦·鲍威尔 Glen Powell

      马修·古迪 Matthew Goode

      杰西卡·布朗·芬德利 Jessica Brown Findlay

      汤姆·康特奈 Tom Courtenay

      佩内洛普·威尔顿 Penelope Wilton


◎简  介


  本片根据安妮·巴罗斯、玛丽·安·谢弗同名小说改编。故事构建于二战后,讲述作家朱丽叶·艾什顿(莉莉·詹姆斯饰)与“根西岛文学与土豆皮馅饼俱乐部”之间互相了解并熟知的故事。


Video
ID : 1
Format : AVC
Format/Info : Advanced Video Codec
Format profile : Main@L3.1
Format settings : CABAC / 3 Ref Frames
Format settings, CABAC : Yes
Format settings, ReFrames : 3 frames
Codec ID : V_MPEG4/ISO/AVC
Duration : 2 h 3 min
Bit rate mode : Variable
Bit rate : 2 610 kb/s
Maximum bit rate : 3 915 kb/s
Width : 1 280 pixels
Height : 720 pixels
Display aspect ratio : 16:9
Frame rate mode : Constant
Frame rate : 24.000 FPS
Color space : YUV
Chroma subsampling : 4:2:0
Bit depth : 8 bits
Scan type : Progressive
Bits/(Pixel*Frame) : 0.118
Stream size : 2.22 GiB (80%)
Writing library : x264 core 148 r2715 7e75228
Encoding settings : cabac=1 / ref=3 / deblock=1:0:0 / analyse=0x1:0x111 / me=umh / subme=10 / psy=1 / psy_rd=1.00:0.00 / mixed_ref=1 / me_range=24 / chroma_me=1 / trellis=2 / 8x8dct=0 / cqm=0 / deadzone=21,11 / fast_pskip=1 / chroma_qp_offset=-2 / threads=8 / lookahead_threads=1 / sliced_threads=0 / nr=0 / decimate=1 / interlaced=0 / bluray_compat=0 / stitchable=1 / constrained_intra=0 / bframes=2 / b_pyramid=0 / b_adapt=2 / b_bias=0 / direct=3 / weightb=1 / open_gop=0 / weightp=2 / keyint=48 / keyint_min=25 / scenecut=0 / intra_refresh=0 / rc_lookahead=48 / rc=2pass / mbtree=1 / bitrate=2610 / ratetol=1.0 / qcomp=0.50 / qpmin=6 / qpmax=51 / qpstep=4 / cplxblur=20.0 / qblur=0.5 / vbv_maxrate=3915 / vbv_bufsize=5220 / nal_hrd=vbr / filler=0 / ip_ratio=1.40 / aq=1:1.00
Default : Yes
Forced : No

Audio
ID : 2
Format : E-AC-3
Format/Info : Enhanced Audio Coding 3
Codec ID : A_EAC3
Duration : 2 h 3 min
Bit rate mode : Constant
Bit rate : 640 kb/s
Channel(s) : 6 channels
Channel positions : Front: L C R, Side: L R, LFE
Sampling rate : 48.0 kHz
Frame rate : 187.500 FPS (256 SPF)
Compression mode : Lossy
Stream size : 568 MiB (20%)
Title : English
Language : English
Service kind : Complete Main
Default : Yes
Forced : No

Text #1
ID : 3
Format : UTF-8
Codec ID : S_TEXT/UTF8
Codec ID/Info : UTF-8 Plain Text
Duration : 1 h 59 min
Bit rate : 63 b/s
Count of elements : 1708
Stream size : 55.4 KiB (0%)
Title : SDH
Language : English
Default : Yes
Forced : No

Text #2
ID : 4
Format : UTF-8
Codec ID : S_TEXT/UTF8
Codec ID/Info : UTF-8 Plain Text
Duration : 1 h 59 min
Bit rate : 58 b/s
Count of elements : 1484
Stream size : 51.5 KiB (0%)
Language : Spanish
Default : No
Forced : No

Text #3
ID : 5
Format : UTF-8
Codec ID : S_TEXT/UTF8
Codec ID/Info : UTF-8 Plain Text
Duration : 1 h 59 min
Bit rate : 53 b/s
Count of elements : 1500
Stream size : 46.7 KiB (0%)
Language : Italian
Default : No
Forced : No

Text #4
ID : 6
Format : UTF-8
Codec ID : S_TEXT/UTF8
Codec ID/Info : UTF-8 Plain Text
Duration : 1 h 59 min
Bit rate : 61 b/s
Count of elements : 1580
Stream size : 54.3 KiB (0%)
Language : Korean
Default : No
Forced : No

Text #5
ID : 7
Format : UTF-8
Codec ID : S_TEXT/UTF8
Codec ID/Info : UTF-8 Plain Text
Duration : 1 h 59 min
Bit rate : 53 b/s
Count of elements : 1545
Stream size : 46.5 KiB (0%)
Language : Polish
Default : No
Forced : No

Text #6
ID : 8
Format : UTF-8
Codec ID : S_TEXT/UTF8
Codec ID/Info : UTF-8 Plain Text
Duration : 1 h 59 min
Bit rate : 51 b/s
Count of elements : 1508
Stream size : 45.1 KiB (0%)
Title : Brazilian
Language : Portuguese
Default : No
Forced : No

Text #7
ID : 9
Format : UTF-8
Codec ID : S_TEXT/UTF8
Codec ID/Info : UTF-8 Plain Text
Duration : 1 h 59 min
Bit rate : 60 b/s
Count of elements : 1547
Stream size : 53.0 KiB (0%)
Language : Romanian
Default : No
Forced : No

Text #8
ID : 10
Format : UTF-8
Codec ID : S_TEXT/UTF8
Codec ID/Info : UTF-8 Plain Text
Duration : 1 h 59 min
Bit rate : 153 b/s
Count of elements : 1572
Stream size : 135 KiB (0%)
Language : Thai
Default : No
Forced : No

Text #9
ID : 11
Format : UTF-8
Codec ID : S_TEXT/UTF8
Codec ID/Info : UTF-8 Plain Text
Duration : 1 h 59 min
Bit rate : 56 b/s
Count of elements : 1556
Stream size : 49.3 KiB (0%)
Language : Turkish
Default : No
Forced : No

Text #10
ID : 12
Format : UTF-8
Codec ID : S_TEXT/UTF8
Codec ID/Info : UTF-8 Plain Text
Duration : 1 h 59 min
Bit rate : 54 b/s
Count of elements : 1573
Stream size : 47.6 KiB (0%)
Title : Traditional
Language : Chinese
Default : No
Forced : No




1 个附件 售价 大小 下载 时间

The.Guernsey.Literary.and.Potato.Peel.Pie.Society.2018.720p.NF.WEBRip.DDP5.1.x264-NTG[btbtt.me].torrent 0 金币 56.19K 322 次 11天前

#1楼
发帖时间:2018-08-10 17:23:46   |   回复数:4
gzgydxljx
小有名气
感谢楼主分享,谢谢!
11天前 #2楼
liyouchai
超凡入圣№
谢谢楼主分享资源
11天前 #3楼
911degrees
隐世仙人♂
非常感谢,谢谢分享
11天前 #4楼
blue23
隐世仙人♂
感谢楼主分享
11天前 #5楼
游客组