aoloffline
版主

[2017] [欧美] [剧情] [WEB-720P] [BT下载]No.Resolution.2017.720p.AMZN.WEBRip.DDP5.1.x264-AJP69 1.85GB

-->

No.Resolution.2017.720p.AMZN.WEBRip.DDP5.1.x264-AJP69


◎译  名 

◎片  名 No Resolution

◎年  代 2017

◎产  地 美国

◎类  别 剧情

◎语  言 英语

◎IMDb评分  N/A

◎IMDb链接  https://www.imdb.com/title/tt5012620/

◎BT之家整理 http://www.btbtt.co 

◎片  长 108

◎导  演 Tim Kasher

◎主  演 Maura Kidwell ... Jean Teller

      Layne Manzer ... Cary Lonegan

      Erin O'Shea ... Crystal

      Emma Neira ... Shawna


◎简  介


  An engaged couple's relationship unravels over the course of a particularly rocky New Year's Eve.


Video
ID : 1
Format : AVC
Format/Info : Advanced Video Codec
Format profile : High@L3.1
Format settings : CABAC / 5 Ref Frames
Format settings, CABAC : Yes
Format settings, ReFrames : 5 frames
Codec ID : V_MPEG4/ISO/AVC
Duration : 1 h 25 min
Bit rate mode : Variable
Bit rate : 2 474 kb/s
Maximum bit rate : 4 500 kb/s
Width : 1 280 pixels
Height : 720 pixels
Display aspect ratio : 16:9
Frame rate mode : Constant
Frame rate : 23.976 (24000/1001) FPS
Color space : YUV
Chroma subsampling : 4:2:0
Bit depth : 8 bits
Scan type : Progressive
Bits/(Pixel*Frame) : 0.112
Stream size : 1.47 GiB (79%)
Default : Yes
Forced : No
Color range : Limited
Color primaries : BT.709
Transfer characteristics : BT.709
Matrix coefficients : BT.709

Audio
ID : 2
Format : E-AC-3
Format/Info : Enhanced Audio Coding 3
Codec ID : A_EAC3
Duration : 1 h 25 min
Bit rate mode : Constant
Bit rate : 640 kb/s
Channel(s) : 6 channels
Channel positions : Front: L C R, Side: L R, LFE
Sampling rate : 48.0 kHz
Frame rate : 187.500 FPS (256 SPF)
Compression mode : Lossy
Stream size : 389 MiB (21%)
Language : English
Service kind : Complete Main
Default : Yes
Forced : No

Text
ID : 3
Format : UTF-8
Codec ID : S_TEXT/UTF8
Codec ID/Info : UTF-8 Plain Text
Duration : 1 h 24 min
Bit rate : 82 b/s
Count of elements : 1889
Stream size : 51.0 KiB (0%)
Title : SDH
Language : English
Default : No
Forced : No




1 个附件 售价 大小 下载 时间

No.Resolution.2017.720p.AMZN.WEBRip.DDP5.1.x264-AJP69[btbtt.me].torrent 0 金币 37.54K 231 次 3月前

#1楼
发帖时间:2018-08-10 15:31:53   |   回复数:3
liyouchai
超凡入圣№
谢谢楼主分享资源
3月前 #2楼
911degrees
隐世仙人♂
非常感谢,谢谢分享
3月前 #3楼
blue23
隐世仙人♂
感谢楼主分享
3月前 #4楼
游客组