aoloffline
版主

[2018] [欧美] [科幻] [HDTV/HDrip] [BT下载]环太平洋2[韩版]Pacific.Rim.2.2018.720p.HDRip.x264.AAC2.0-STU 2.7GB

-->

Pacific.Rim.2.Uprising.2018.720p.KORSUB.HDRip.x264.AAC2.0-STUTTERSHIT

◎译  名 环太平洋:雷霆再起/环太平洋2/环太平洋2:雷霆再起/环太平洋2:起义时刻(台)/悍战太平洋2:起义时空(港)/环太平洋2:崛起/环太平洋2:漩涡

◎片  名 Pacific Rim: Uprising

◎年  代 2018

◎产  地 美国/中国大陆

◎类  别 动作/科幻/冒险

◎语  言 英语/汉语普通话

◎上映日期 2018-03-23(美国)/2018-03-23(中国大陆)

◎IMDb评分  6.0/10 from 26,086 users

◎IMDb链接  http://www.imdb.com/title/tt2557478/

◎豆瓣评分 5.8/10 from 84,594 users

◎豆瓣链接 https://movie.douban.com/subject/20435622/

◎BT之家整理 http://www.btbtt.me/

◎片  长 111分钟

◎导  演 斯蒂文·S·迪奈特 Steven S. DeKnight

◎主  演 约翰·博耶加 John Boyega

      斯科特·伊斯特伍德 Scott Eastwood

      卡莉·史派妮 Cailee Spaeny

      景甜 Tian Jing

      查理·戴 Charlie Day

      伯恩·戈曼 Burn Gorman

      张晋 Max Zhang

      亚德里亚·霍纳 Adria Arjona

      菊地凛子 Rinko Kikuchi

      卡兰·布拉尔 Karan Brar

      黄恺杰 Wesley Wong

      伊万娜·萨赫诺 Ivanna Sakhno

      新田真剑佑 Mackenyu

      吉丽 Lily Ji

      雪莉·罗德里格斯 Shyrley Rodriguez

      拉哈特·亚当斯 Rahart Adams

      列维·米登 Levi Meaden

      达斯汀·克莱尔 Dustin Clare

      陈梓童 Queen T

      于小伟 Xiaowei Yu

      钱泳辰 Yongchen Qian

      郭家铭 Jiaming Guo

      蓝盈莹 Lyric Lan

      金桢勋 Jeong-Hoon Kim

      菊池润美 Rumi Kikuchi

      丹尼尔·弗雷里格尔 Daniel Feuerriegel

      齐柏林·汉密尔顿 Zeppelin Hamilton

      尼克·塔拉贝 Nick E. Tarabay

      布里德基·萨蒂纳 Bridger Zadina

      小蒂姆·约翰逊 Tim Johnson Jr.

      玛德琳·麦格劳 Madeleine McGraw

      乔什·斯坦伯 Josh Stamberg

      斯蒂芬妮·阿琳 Stephanie Allynne

      卢克·朱迪 Luke Judy


◎简  介


  故事发生在距离前作战乱结束十年之后的2035年。随着科技的进步,机甲更新换代,拥有了更先进的功能和更强劲的战斗力。但外星“先驱”仍对地球蠢蠢欲动,当海底虫洞再次被打开,进化而来的怪兽更加庞大且智慧,它们似乎酝酿着更具威胁的阴谋,地球再次陷入被巨兽侵袭的危机。面对机甲驾驶员的短缺,杰克(约翰·波耶加 饰)与奈特(斯科特·伊斯特伍德 饰)这对曾经的机甲驾驶员搭档再次联手,不得不冒险率领从未有过实战经验的机甲学员们奋起抵抗,为守护住人类最后的希望与怪兽展开硬碰硬的激烈一战。


◎获奖情况


  第4届豆瓣电影年度榜单  (2017)

  最值得期待的外语电影(提名)


Video
ID                                       : 1
Format                                   : AVC
Format/Info                              : Advanced Video Codec
Format profile                           : High@L4.1
Format settings                          : CABAC / 4 Ref Frames
Format settings, CABAC                   : Yes
Format settings, ReFrames                : 4 frames
Codec ID                                 : V_MPEG4/ISO/AVC
Duration                                 : 1 h 50 min
Bit rate                                 : 3 337 kb/s
Width                                    : 1 280 pixels
Height                                   : 536 pixels
Display aspect ratio                     : 2.40:1
Frame rate mode                          : Constant
Frame rate                               : 29.970 (30000/1001) FPS
Color space                              : YUV
Chroma subsampling                       : 4:2:0
Bit depth                                : 8 bits
Scan type                                : Progressive
Bits/(Pixel*Frame)                       : 0.162
Stream size                              : 2.57 GiB (94%)
Title                                    : Pacific.Rim.2.Uprising.2018.720p.KORSUB.HDRip.x264.AAC2.0-STUTTERSHIT
Writing library                          : x264 core 142 r2479 dd79a61
Encoding settings                        : cabac=1 / ref=1 / deblock=1:0:0 / analyse=0x3:0x113 / me=hex / subme=2 / psy=1 / psy_rd=1.00:0.00 / mixed_ref=0 / me_range=16 / chroma_me=1 / trellis=0 / 8x8dct=1 / cqm=0 / deadzone=21,11 / fast_pskip=1 / chroma_qp_offset=0 / threads=12 / lookahead_threads=4 / sliced_threads=0 / nr=0 / decimate=1 / interlaced=0 / bluray_compat=0 / constrained_intra=0 / bframes=3 / b_pyramid=2 / b_adapt=1 / b_bias=0 / direct=1 / weightb=1 / open_gop=0 / weightp=1 / keyint=300 / keyint_min=30 / scenecut=40 / intra_refresh=0 / rc_lookahead=10 / rc=abr / mbtree=1 / bitrate=3337 / ratetol=1.0 / qcomp=0.60 / qpmin=0 / qpmax=69 / qpstep=4 / vbv_maxrate=62500 / vbv_bufsize=78125 / nal_hrd=none / filler=0 / ip_ratio=1.40 / aq=1:1.00
Default                                  : Yes
Forced                                   : No
Color range                              : Limited
Color primaries                          : BT.709
Transfer characteristics                 : BT.709
Matrix coefficients                      : BT.709

Audio
ID                                       : 2
Format                                   : AAC
Format/Info                              : Advanced Audio Codec
Format profile                           : LC
Codec ID                                 : A_AAC-2
Duration                                 : 1 h 50 min
Bit rate                                 : 224 kb/s
Channel(s)                               : 2 channels
Channel positions                        : Front: L R
Sampling rate                            : 48.0 kHz
Frame rate                               : 46.875 FPS (1024 SPF)
Compression mode                         : Lossy
Delay relative to video                  : -5 ms
Stream size                              : 177 MiB (6%)
Title                                    : Pacific.Rim.2.Uprising.2018.720p.KORSUB.HDRip.x264.AAC2.0-STUTTERSHIT
Language                                 : English
Default                                  : Yes
Forced                                   : No




1 个附件 售价 大小 下载 时间

Pacific.Rim.2.Uprising.2018.720p.KORSUB.HDRip.x264.AAC2.0-STUTTERSHIT[btbtt.me].torrent 0 金币 55.58K 3962 次 4月前

#1楼
发帖时间:2018-04-18 16:40:09   |   回复数:5
dh_lt
武林高手
感谢分享,坐等字幕
4月前 #2楼
linyihuangwei
武林盟主
谢谢分享
4月前 #3楼
liyouchai
超凡入圣№
谢谢楼主分享资源
4月前 #4楼
blue23
隐世仙人♂
感谢楼主分享
4月前 #5楼
911degrees
隐世仙人♂
非常感谢,谢谢分享
3月前 #6楼
游客组