aoloffline
版主

[2008] [欧美] [动画] [WEB-1080P] [BT下载]远在天边 Lost.and.Found.2008.1080p.AMZN.WEBRip.DDP5.1.x265-SiGMA 0.9GB

-->

Lost.and.Found.2008.1080p.AMZN.WEBRip.DDP5.1.x265-SiGMA

◎译  名 远在天边/迷路小企鹅(台)/真我之旅

◎片  名 Lost and Found

◎年  代 2008

◎产  地 英国

◎类  别 剧情/动画/短片

◎语  言 英语

◎上映日期 2008-12-24(英国)

◎IMDb评分  8.1/10 from 601 users

◎IMDb链接  http://www.imdb.com/title/tt1336600/

◎豆瓣评分 9.0/10 from 34,987 users

◎豆瓣链接 https://movie.douban.com/subject/3358309/

◎BT之家整理 http://www.btbtt.me/

◎片  长 24分钟

◎导  演 菲利普·亨特 Philip Hunt

◎主  演 吉姆·布劳德本特 Jim Broadbent


◎简  介


  秋叶纷飞的港口小镇,一只孤独的企鹅彷徨在空荡荡的街道上。它饥肠辘辘,无所依靠,漫无目的来到了一个小男孩的家中。企鹅似乎对男孩的收音机颇感兴趣,男孩则有些不知所措,只得把它送到失物招领处,然而根本没人丢失过企鹅。小企鹅成为男孩的累赘,几番周折,男孩得知企鹅都是生长在南极。于是,他制作了小木船,和小企鹅踏上了前往南极的归乡旅途……

  本片由英国著名动画工作室AKA根据绘本名家奥利弗·杰法(Oliver Jeffer)的同名原著改编,制成后于圣诞节之时在英国第4频道播放。该片荣获2009年英国电影电视艺术学院儿童奖最佳影片奖和2009年芝加哥国际儿童电影节儿童评委会奖最佳动画片。


Video
ID                                       : 1
Format                                   : HEVC
Format/Info                              : High Efficiency Video Coding
Format profile                           : Main@L4@Main
Codec ID                                 : V_MPEGH/ISO/HEVC
Duration                                 : 24 min 3 s
Bit rate                                 : 5 233 kb/s
Width                                    : 1 920 pixels
Height                                   : 1 080 pixels
Display aspect ratio                     : 16:9
Frame rate mode                          : Constant
Frame rate                               : 23.976 (24000/1001) FPS
Standard                                 : NTSC
Color space                              : YUV
Chroma subsampling                       : 4:2:0
Bit depth                                : 8 bits
Bits/(Pixel*Frame)                       : 0.105
Stream size                              : 900 MiB (89%)
Default                                  : Yes
Forced                                   : No
Color range                              : Limited
Color primaries                          : BT.709
Transfer characteristics                 : BT.709
Matrix coefficients                      : BT.709

Audio
ID                                       : 2
Format                                   : E-AC-3
Format/Info                              : Enhanced Audio Coding 3
Codec ID                                 : A_EAC3
Duration                                 : 24 min 2 s
Bit rate mode                            : Constant
Bit rate                                 : 640 kb/s
Channel(s)                               : 6 channels
Channel positions                        : Front: L C R, Side: L R, LFE
Sampling rate                            : 48.0 kHz
Frame rate                               : 187.500 FPS (256 SPF)
Compression mode                         : Lossy
Stream size                              : 110 MiB (11%)
Language                                 : English
Service kind                             : Complete Main
Default                                  : Yes
Forced                                   : No

Text
ID                                       : 3
Format                                   : UTF-8
Codec ID                                 : S_TEXT/UTF8
Codec ID/Info                            : UTF-8 Plain Text
Duration                                 : 23 min 19 s
Bit rate                                 : 24 b/s
Count of elements                        : 146
Stream size                              : 4.18 KiB (0%)
Language                                 : English
Default                                  : No
Forced                                   : No





1 个附件 售价 大小 下载 时间

Lost.and.Found.2008.1080p.AMZN.WEBRip.DDP5.1.x265-SiGMA[btbtt.me].torrent 0 金币 40.02K 616 次 9天前

#1楼
发帖时间:2018-04-17 12:01:30   |   回复数:3
blue23
隐世仙人♂
感谢楼主分享
9天前 #2楼
liyouchai
超凡入圣№
谢谢楼主分享资源
9天前 #3楼
911degrees
超凡入圣№
非常感谢,谢谢分享
1天前 #4楼
游客组