aoloffline
版主

[2018] [欧美] [动画] [BD-720P] [BT下载]自杀小队:严厉惩罚 Suicide.Squad.Hell.to.Pay.2018.720p.BluRay.x264.DTS-MT 2.7GB

-->

Suicide.Squad.Hell.to.Pay.2018.720p.BluRay.x264.DTS-MT

◎译  名 自杀小队:严厉惩罚

◎片  名 Suicide Squad: Hell to Pay

◎年  代 2018

◎产  地 美国

◎类  别 动作/动画

◎语  言 英语

◎上映日期 2018-03-27(美国)

◎IMDb评分  7.3/10 from 1,620 users

◎IMDb链接  http://www.imdb.com/title/tt7167602/

◎豆瓣评分 7.4/10 from 110 users

◎豆瓣链接 https://movie.douban.com/subject/27098363/

◎BT之家整理 http://www.btbtt.me/

◎片  长 86分钟

◎导  演 刘山姆 Sam Liu

◎主  演 克里斯蒂安·史莱特 Christian Slater

      C·托马斯·豪威尔 C. Thomas Howell

      塔拉·斯特朗 Tara Strong

      丹妮亚·拉米雷兹 Dania Ramirez

      凡妮莎·威廉斯 Vanessa Williams

      比利·布朗 Billy Brown

      克里斯汀·鲍尔 Kristin Bauer

      吉迪恩·埃默里 Gideon Emery

      詹姆斯·乌尔班尼亚克 James Urbaniak

      吉姆·皮里 Jim Pirri

      格雷戈·格伦伯格 Greg Grunberg

      特雷弗·德瓦 Trevor Devall

      马修·默瑟 Matthew Mercer

      Julie Nathanson

      Dave Fennoy

      Cissy Jones

      Natalie Lander

      Dave Boat


◎简  介


  DC动画电影《自杀小队:严厉惩罚》(Suicide Squad: Hell to Pay)发布预告,小丑女、死射、冰霜杀手、铜头蛇、回旋镖队长、铜虎组成小队,阿曼达·沃勒派遣他们去找回一个神秘物件——为此他们愿意牺牲性命,而小队很快发现他们面临着其他团伙的挑战。

  克里斯汀·史莱特、C·托马斯·豪威尔、塔拉·斯特朗、连姆·麦肯泰尔、比利·布朗、克里斯汀·鲍尔、凡妮莎·威廉姆斯、丹妮亚·拉米雷兹等参与配音,Sam Liu(《蝙蝠侠:致命玩笑》《绿灯侠》动画系列)执导,今春发行数字版、DVD和蓝光碟。


Video
ID                                       : 1
Format                                   : AVC
Format/Info                              : Advanced Video Codec
Format profile                           : High@L4.1
Format settings                          : CABAC / 9 Ref Frames
Format settings, CABAC                   : Yes
Format settings, ReFrames                : 9 frames
Codec ID                                 : V_MPEG4/ISO/AVC
Duration                                 : 1 h 26 min
Bit rate                                 : 3 073 kb/s
Width                                    : 1 280 pixels
Height                                   : 720 pixels
Display aspect ratio                     : 16:9
Frame rate mode                          : Constant
Frame rate                               : 23.976 (24000/1001) FPS
Color space                              : YUV
Chroma subsampling                       : 4:2:0
Bit depth                                : 8 bits
Scan type                                : Progressive
Bits/(Pixel*Frame)                       : 0.139
Stream size                              : 1.85 GiB (67%)
Title                                    : Suicide.Squad.Hell.to.Pay.2018.720p.BluRay.x264.DTS-MT
Writing library                          : x264 core 155 r2901 7d0ff22
Encoding settings                        : cabac=1 / ref=9 / deblock=1:-3:-3 / analyse=0x3:0x113 / me=umh / subme=10 / psy=1 / psy_rd=1.00:0.05 / mixed_ref=1 / me_range=32 / chroma_me=1 / trellis=2 / 8x8dct=1 / cqm=0 / deadzone=21,11 / fast_pskip=0 / chroma_qp_offset=-2 / threads=12 / lookahead_threads=2 / sliced_threads=0 / nr=0 / decimate=1 / interlaced=0 / bluray_compat=0 / constrained_intra=0 / bframes=8 / b_pyramid=2 / b_adapt=2 / b_bias=0 / direct=3 / weightb=1 / open_gop=0 / weightp=2 / keyint=250 / keyint_min=23 / scenecut=40 / intra_refresh=0 / rc_lookahead=40 / rc=crf / mbtree=0 / crf=15.0 / qcomp=0.60 / qpmin=0 / qpmax=69 / qpstep=4 / vbv_maxrate=30000 / vbv_bufsize=30000 / crf_max=0.0 / nal_hrd=none / filler=0 / ip_ratio=1.40 / pb_ratio=1.30 / aq=3:1.00
Default                                  : Yes
Forced                                   : No
Color range                              : Limited
Matrix coefficients                      : BT.709

Audio
ID                                       : 2
Format                                   : DTS
Format/Info                              : Digital Theater Systems
Codec ID                                 : A_DTS
Duration                                 : 1 h 26 min
Bit rate mode                            : Constant
Bit rate                                 : 1 509 kb/s
Channel(s)                               : 6 channels
Channel positions                        : Front: L C R, Side: L R, LFE
Sampling rate                            : 48.0 kHz
Frame rate                               : 93.750 FPS (512 SPF)
Bit depth                                : 24 bits
Compression mode                         : Lossy
Stream size                              : 929 MiB (33%)
Title                                    : Suicide.Squad.Hell.to.Pay.2018.720p.BluRay.x264.DTS-MT
Language                                 : English
Default                                  : Yes
Forced                                   : No

Text
ID                                       : 3
Format                                   : UTF-8
Codec ID                                 : S_TEXT/UTF8
Codec ID/Info                            : UTF-8 Plain Text
Duration                                 : 1 h 25 min
Bit rate                                 : 44 b/s
Count of elements                        : 853
Stream size                              : 28.0 KiB (0%)
Language                                 : English
Default                                  : Yes
Forced                                   : No




1 个附件 售价 大小 下载 时间

Suicide.Squad.Hell.to.Pay.2018.720p.BluRay.x264.DTS-MT[btbtt.me].torrent 0 金币 55.65K 1393 次 4月前

#1楼
发帖时间:2018-04-14 20:55:00   |   回复数:3
liyouchai
超凡入圣№
谢谢楼主分享资源
4月前 #2楼
blue23
隐世仙人♂
感谢楼主分享
4月前 #3楼
911degrees
隐世仙人♂
非常感谢,谢谢分享
3月前 #4楼
游客组