aoloffline
版主

[更 早] [欧美] [剧情] [BD-4K] [BT下载]托斯卡 Tosca.2001.ITALIAN.2160p.BluRay.x265.10bit.SDR.DTS-SWTYBLZ 32GB

-->

Tosca.2001.ITALIAN.2160p.BluRay.x265.10bit.SDR.DTS-HD.MA.5.1-SWTYBLZ

◎译  名 托斯卡

◎片  名 Tosca

◎年  代 2001

◎产  地 意大利/法国/英国/德国

◎类  别 歌舞/剧情

◎语  言 意大利语

◎上映日期 2001-09-09

◎IMDb评分  7.4/10 from 351 users

◎IMDb链接  http://www.imdb.com/title/tt0240122/

◎豆瓣评分 8.7/10 from 56 users

◎豆瓣链接 https://movie.douban.com/subject/1308182/

◎BT之家整理 http://www.btbtt.co 

◎片  长 126 分钟

◎导  演 伯努瓦·雅克 Benoît Jacquot

◎主  演 安琪拉·葛姬 Angela Gheorghiu

      阿兰尼亚 Roberto Alagna

      Ruggero Raimondi


◎简  介


  普契尼的《托斯卡》可以是個廉價的煽情戲,一部糅合著愛情、政治與慾望的通俗劇-如果沒有他那扣人心弦的華麗樂章,與撕裂的神經末梢融和一致的音符的話。把這樣一部膾炙人口的歌劇搬上銀幕,也幾乎註定要令導演焦頭爛額。然而奇蹟出現了,班諾瓦.積高的《托斯卡》應是十多年來少數歌劇電影令人滿意的一部。積高以三種途徑(以華麗的攝影拍攝全劇的戲肉,十六毫米的黑白菲林拍攝錄音過程,及以錄像俯瞰歷史現場)來閱讀普契尼的傑作,不但叫人一新耳目,原劇的迫力更絲毫不減。原籍羅馬尼亞的女高音安琪拉.葛姬演繹的托斯卡,更是一次顛峰演出。


Video
ID                                       : 1
Format                                   : HEVC
Format/Info                              : High Efficiency Video Coding
Format profile                           : Main 10@L5.1@High
Codec ID                                 : V_MPEGH/ISO/HEVC
Duration                                 : 1 h 59 min
Bit rate                                 : 34.2 Mb/s
Width                                    : 3 840 pixels
Height                                   : 2 076 pixels
Display aspect ratio                     : 1.85:1
Frame rate mode                          : Constant
Frame rate                               : 25.000 FPS
Color space                              : YUV
Chroma subsampling                       : 4:2:0
Bit depth                                : 10 bits
Bits/(Pixel*Frame)                       : 0.171
Stream size                              : 28.6 GiB (88%)
Title                                    : Tosca.2001.ITALIAN.2160p.BluRay.x265.10bit.SDR.DTS-HD.MA.5.1-SWTYBLZ
Writing library                          : x265 2.5b4a5bcfe29c7:[Windows][GCC 4.9.3][64 bit] 10bit
Encoding settings                        : cpuid=1173503 / frame-threads=16 / numa-pools=24,24,24,24 / wpp / no-pmode / no-pme / no-psnr / no-ssim / log-level=2 / input-csp=1 / input-res=3840x2076 / interlace=0 / total-frames=0 / level-idc=51 / high-tier=1 / uhd-bd=0 / ref=3 / no-allow-non-conformance / repeat-headers / annexb / aud / hrd / info / hash=0 / no-temporal-layers / no-open-gop / min-keyint=1 / keyint=24 / bframes=4 / b-adapt=2 / b-pyramid / bframe-bias=0 / rc-lookahead=25 / lookahead-slices=4 / scenecut=40 / no-intra-refresh / ctu=64 / min-cu-size=8 / no-rect / no-amp / max-tu-size=32 / tu-inter-depth=1 / tu-intra-depth=1 / limit-tu=0 / rdoq-level=0 / dynamic-rd=0.00 / no-ssim-rd / signhide / no-tskip / nr-intra=0 / nr-inter=0 / no-constrained-intra / strong-intra-smoothing / max-merge=2 / limit-refs=3 / no-limit-modes / me=1 / subme=2 / merange=57 / temporal-mvp / weightp / no-weightb / no-analyze-src-pics / deblock=0:0 / no-sao / no-sao-non-deblock / rd=3 / no-early-skip / rskip / no-fast-intra / no-tskip-fast / no-cu-lossless / no-b-intra / rdpenalty=0 / psy-rd=2.00 / psy-rdoq=0.00 / no-rd-refine / analysis-reuse-mode=0 / no-lossless / cbqpoffs=0 / crqpoffs=0 / rc=crf / crf=20.0 / qcomp=0.60 / qpstep=4 / stats-write=0 / stats-read=0 / vbv-maxrate=160000 / vbv-bufsize=160000 / vbv-init=0.9 / crf-max=0.0 / crf-min=0.0 / ipratio=1.40 / pbratio=1.30 / aq-mode=1 / aq-strength=1.00 / cutree / zone-count=0 / no-strict-cbr / qg-size=32 / no-rc-grain / qpmax=69 / qpmin=0 / no-const-vbv / sar=1 / overscan=0 / videoformat=5 / range=0 / colorprim=2 / transfer=2 / colormatrix=2 / chromaloc=0 / display-window=0 / max-cll=0,0 / min-luma=0 / max-luma=1023 / log2-max-poc-lsb=8 / vui-timing-info / vui-hrd-info / slices=1 / opt-qp-pps / opt-ref-list-length-pps / no-multi-pass-opt-rps / scenecut-bias=0.05 / no-opt-cu-delta-qp / no-aq-motion / no-hdr / no-hdr-opt / no-dhdr10-opt / analysis-reuse-level=5 / scale-factor=0 / refine-intra=0 / refine-inter=0 / refine-mv=0 / no-limit-sao / ctu-info=0
Default                                  : Yes
Forced                                   : No

Audio #1
ID                                       : 2
Format                                   : DTS
Format/Info                              : Digital Theater Systems
Format profile                           : MA / Core
Codec ID                                 : A_DTS
Duration                                 : 1 h 59 min
Bit rate mode                            : Variable / Constant
Bit rate                                 : 4 041 kb/s / 1 509 kb/s
Channel(s)                               : 6 channels
Channel positions                        : Front: L C R, Side: L R, LFE
Sampling rate                            : 48.0 kHz
Frame rate                               : 93.750 FPS (512 SPF)
Bit depth                                : 24 bits
Compression mode                         : Lossless / Lossy
Stream size                              : 3.38 GiB (10%)
Title                                    : Tosca.2001.ITALIAN.2160p.BluRay.x265.10bit.SDR.DTS-HD.MA.5.1-SWTYBLZ
Language                                 : Italian
Default                                  : Yes
Forced                                   : No

Audio #2
ID                                       : 3
Format                                   : AC-3
Format/Info                              : Audio Coding 3
Codec ID                                 : A_AC3
Duration                                 : 1 h 59 min
Bit rate mode                            : Constant
Bit rate                                 : 640 kb/s
Channel(s)                               : 6 channels
Channel positions                        : Front: L C R, Side: L R, LFE
Sampling rate                            : 48.0 kHz
Frame rate                               : 31.250 FPS (1536 SPF)
Bit depth                                : 16 bits
Compression mode                         : Lossy
Stream size                              : 548 MiB (2%)
Title                                    : Tosca.2001.ITALIAN.2160p.BluRay.x265.10bit.SDR.DTS-HD.MA.5.1-SWTYBLZ
Language                                 : Italian
Service kind                             : Complete Main
Default                                  : No
Forced                                   : No

Text #1
ID                                       : 4
Format                                   : UTF-8
Codec ID                                 : S_TEXT/UTF8
Codec ID/Info                            : UTF-8 Plain Text
Duration                                 : 1 h 53 min
Bit rate                                 : 29 b/s
Count of elements                        : 905
Stream size                              : 24.4 KiB (0%)
Title                                    : English-SRT
Language                                 : English
Default                                  : Yes
Forced                                   : No

Text #2
ID                                       : 5
Format                                   : PGS
Muxing mode                              : zlib
Codec ID                                 : S_HDMV/PGS
Codec ID/Info                            : Picture based subtitle format used on BDs/HD-DVDs
Duration                                 : 1 h 53 min
Bit rate                                 : 17.2 kb/s
Count of elements                        : 1814
Stream size                              : 14.0 MiB (0%)
Title                                    : English-PGS
Language                                 : English
Default                                  : No
Forced                                   : No

Text #3
ID                                       : 6
Format                                   : PGS
Muxing mode                              : zlib
Codec ID                                 : S_HDMV/PGS
Codec ID/Info                            : Picture based subtitle format used on BDs/HD-DVDs
Duration                                 : 1 h 53 min
Bit rate                                 : 15.3 kb/s
Count of elements                        : 1824
Stream size                              : 12.4 MiB (0%)
Title                                    : Italian-PGS
Language                                 : Italian
Default                                  : No
Forced                                   : No

Text #4
ID                                       : 7
Format                                   : PGS
Muxing mode                              : zlib
Codec ID                                 : S_HDMV/PGS
Codec ID/Info                            : Picture based subtitle format used on BDs/HD-DVDs
Duration                                 : 1 h 53 min
Bit rate                                 : 18.7 kb/s
Count of elements                        : 1814
Stream size                              : 15.2 MiB (0%)
Title                                    : German-PGS
Language                                 : German
Default                                  : No
Forced                                   : No

Text #5
ID                                       : 8
Format                                   : PGS
Muxing mode                              : zlib
Codec ID                                 : S_HDMV/PGS
Codec ID/Info                            : Picture based subtitle format used on BDs/HD-DVDs
Duration                                 : 1 h 53 min
Bit rate                                 : 17.4 kb/s
Count of elements                        : 1814
Stream size                              : 14.2 MiB (0%)
Title                                    : French-PGS
Language                                 : French
Default                                  : No
Forced                                   : No

Text #6
ID                                       : 9
Format                                   : PGS
Muxing mode                              : zlib
Codec ID                                 : S_HDMV/PGS
Codec ID/Info                            : Picture based subtitle format used on BDs/HD-DVDs
Duration                                 : 1 h 53 min
Bit rate                                 : 16.8 kb/s
Count of elements                        : 1814
Stream size                              : 13.7 MiB (0%)
Title                                    : Spanish-PGS
Language                                 : Spanish
Default                                  : No
Forced                                   : No

Text #7
ID                                       : 10
Format                                   : PGS
Muxing mode                              : zlib
Codec ID                                 : S_HDMV/PGS
Codec ID/Info                            : Picture based subtitle format used on BDs/HD-DVDs
Duration                                 : 1 h 53 min
Bit rate                                 : 17.3 kb/s
Count of elements                        : 1814
Stream size                              : 14.1 MiB (0%)
Title                                    : Korean-PGS
Language                                 : Korean
Default                                  : No
Forced                                   : No

Text #8
ID                                       : 11
Format                                   : PGS
Muxing mode                              : zlib
Codec ID                                 : S_HDMV/PGS
Codec ID/Info                            : Picture based subtitle format used on BDs/HD-DVDs
Duration                                 : 1 h 53 min
Bit rate                                 : 17.1 kb/s
Count of elements                        : 1822
Stream size                              : 13.9 MiB (0%)
Title                                    : Japanese-PGS
Language                                 : Japanese
Default                                  : No
Forced                                   : No

Menu
00:00:00.000                             : en:Chapter 1
00:00:31.000                             : en:Chapter 2
00:02:47.720                             : en:Chapter 3
00:05:04.000                             : en:Chapter 4
00:06:11.000                             : en:Chapter 5
00:10:02.720                             : en:Chapter 6
00:11:47.000                             : en:Chapter 7
00:13:44.000                             : en:Chapter 8
00:14:43.000                             : en:Chapter 9
00:17:15.000                             : en:Chapter 10
00:19:05.000                             : en:Chapter 11
00:20:46.000                             : en:Chapter 12
00:24:44.000                             : en:Chapter 13
00:28:17.280                             : en:Chapter 14
00:29:58.400                             : en:Chapter 15
00:33:34.000                             : en:Chapter 16
00:36:44.520                             : en:Chapter 17
00:38:48.000                             : en:Chapter 18
00:40:55.000                             : en:Chapter 19
00:45:27.000                             : en:Chapter 20
00:46:53.000                             : en:Chapter 21
00:48:43.000                             : en:Chapter 22
00:49:58.000                             : en:Chapter 23
00:51:07.000                             : en:Chapter 24
00:53:33.600                             : en:Chapter 25
00:55:22.000                             : en:Chapter 26
01:00:39.000                             : en:Chapter 27
01:04:12.080                             : en:Chapter 28
01:05:42.000                             : en:Chapter 29
01:06:59.000                             : en:Chapter 30
01:08:24.000                             : en:Chapter 31
01:12:58.000                             : en:Chapter 32
01:16:28.000                             : en:Chapter 33
01:20:09.000                             : en:Chapter 34
01:22:20.000                             : en:Chapter 35
01:27:30.000                             : en:Chapter 36
01:29:17.000                             : en:Chapter 37
01:30:47.200                             : en:Chapter 38
01:33:20.000                             : en:Chapter 39
01:35:07.000                             : en:Chapter 40
01:36:49.000                             : en:Chapter 41
01:37:57.000                             : en:Chapter 42
01:41:05.720                             : en:Chapter 43
01:43:40.000                             : en:Chapter 44
01:45:20.000                             : en:Chapter 45
01:49:03.000                             : en:Chapter 46
01:51:09.000                             : en:Chapter 47
01:51:49.000                             : en:Chapter 48
01:54:04.720                             : en:Chapter 49
01:55:23.000                             : en:Chapter 50







1 个附件 售价 大小 下载 时间

Tosca.2001.ITALIAN.2160p.BluRay.x265.10bit.SDR.DTS-HD.MA.5.1-SWTYBLZ[btbtt.me].torrent 0 金币 82.35K 665 次 4月前

#1楼
发帖时间:2018-04-14 19:56:51   |   回复数:3
liyouchai
超凡入圣№
谢谢楼主分享资源
4月前 #2楼
blue23
隐世仙人♂
感谢楼主分享
4月前 #3楼
911degrees
隐世仙人♂
非常感谢,谢谢分享
3月前 #4楼
游客组