aoloffline
版主

[2012] [欧美] [动作] [WEB-4K] [BT下载]龙虎少年队 2012.2160p.WEBRip.x265.10bit.HDR.DTS.5.1-GASMASK 27GB

-->

21.Jump.Street.2012.2160p.WEBRip.x265.10bit.HDR.DTS.5.1-GASMASK

◎译  名 龙虎少年队/逃学黐孖咇(港)

◎片  名 21 Jump Street

◎年  代 2012

◎产  地 美国

◎类  别 喜剧/动作/犯罪

◎语  言 英语

◎上映日期 2012-03-16(美国)

◎IMDb评分  7.2/10 from 453,702 users

◎IMDb链接  http://www.imdb.com/title/tt1232829/

◎豆瓣评分 6.8/10 from 25,777 users

◎豆瓣链接 https://movie.douban.com/subject/3072889/

◎BT之家整理 http://www.btbtt.co 

◎片  长 109分钟

◎导  演 菲尔·罗德 Phil Lord / 克里斯托弗·米勒 Christopher Miller

◎主  演 乔纳·希尔 Jonah Hill

      查宁·塔图姆 Channing Tatum

      约翰尼·西蒙斯 Johnny Simmons

      戴夫·弗兰科 Dave Franco

      罗伯·里格尔 Rob Riggle

      德雷·戴维斯 DeRay Davis

      艾丽·坎伯尔 Ellie Kemper

      艾斯·库珀 Ice Cube

      布丽·拉尔森 Brie Larson

      约翰尼·德普 Johnny Depp

      达科塔·约翰逊 Dakota Johnson


◎简  介


  Morton Schmidt(乔纳·希尔 Jonah Hill 饰)和Greg Jenko(查宁·塔图姆 Channing Tatum 饰)两人是同学,后来又在警校相逢,两人互相帮忙,终于顺利从警校毕业,成为了好搭档。无奈两人只能当交警,抓抓小混混。后来他们加入了警方的卧底缉毒组织“21 Jump Street”,队长Dickon(艾斯·库珀 Ice Cube 饰)告诉他们,他们的任务是重回高中当卧底,找到那个向学生提供毒品的人。在学校里,他们了解到,学生们的毒品是从一个叫Eric(戴夫·弗兰科 Dave Franco 饰)的人手里来的,但案件并没有这么简单。同时,Schmidt也喜欢上Eric的一个朋友Molly,Jenko的化学老师似乎也对他挺感兴趣的。到底两人在学校的卧底调查会有怎样的结果?

  本片改编自同名电视剧。


◎获奖情况


  第21届MTV电影奖  (2012)

  MTV电影奖 最佳打斗(提名) 查宁·塔图姆 / 乔纳·希尔

  MTV电影奖 最佳喜剧表演(提名) 乔纳·希尔

  MTV电影奖 最佳银幕形象转变(提名) 约翰尼·德普

  MTV电影奖 最佳音乐

  MTV电影奖 最佳卡司阵容(提名)

  MTV电影奖 最佳英雄形象(提名) 查宁·塔图姆

  MTV电影奖 最虐心的表演(提名) 罗伯·里格尔 / 乔纳·希尔


  第18届美国评论家选择电影奖  (2013)

  最佳喜剧片(提名)

  喜剧片最佳男主角(提名) 查宁·塔图姆


  第14届美国青少年选择奖  (2012)

  最佳喜剧片

  最佳喜剧片男演员 查宁·塔图姆

  最佳喜剧片男演员(提名) 乔纳·希尔

  最佳银幕拍档(提名) 查宁·塔图姆 / 乔纳·希尔

  最佳电影打斗(提名) 查宁·塔图姆 / 乔纳·希尔

  Choice Movie: Hissy Fit(提名) 查宁·塔图姆 / 乔纳·希尔


Video
ID                                       : 1
Format                                   : HEVC
Format/Info                              : High Efficiency Video Coding
Format profile                           : Main 10@L5@Main
Codec ID                                 : V_MPEGH/ISO/HEVC
Duration                                 : 1 h 49 min
Bit rate                                 : 33.6 Mb/s
Width                                    : 3 840 pixels
Height                                   : 2 160 pixels
Display aspect ratio                     : 16:9
Frame rate mode                          : Constant
Frame rate                               : 23.976 (24000/1001) FPS
Color space                              : YUV
Chroma subsampling                       : 4:2:0
Bit depth                                : 10 bits
Bits/(Pixel*Frame)                       : 0.169
Stream size                              : 25.7 GiB (94%)
Default                                  : Yes
Forced                                   : No
Color range                              : Limited
Color primaries                          : BT.2020
Transfer characteristics                 : PQ
Matrix coefficients                      : BT.2020 non-constant
Mastering display color primaries        : Display P3
Mastering display luminance              : min: 0.0050 cd/m2, max: 1000 cd/m2

Audio #1
ID                                       : 2
Format                                   : DTS
Format/Info                              : Digital Theater Systems
Codec ID                                 : A_DTS
Duration                                 : 1 h 49 min
Bit rate mode                            : Constant
Bit rate                                 : 1 509 kb/s
Channel(s)                               : 6 channels
Channel positions                        : Front: L C R, Side: L R, LFE
Sampling rate                            : 48.0 kHz
Frame rate                               : 93.750 FPS (512 SPF)
Bit depth                                : 24 bits
Compression mode                         : Lossy
Delay relative to video                  : 9 ms
Stream size                              : 1.16 GiB (4%)
Title                                    : English
Language                                 : English
Default                                  : Yes
Forced                                   : No

Audio #2
ID                                       : 3
Format                                   : AC-3
Format/Info                              : Audio Coding 3
Codec ID                                 : A_AC3
Duration                                 : 1 h 49 min
Bit rate mode                            : Constant
Bit rate                                 : 640 kb/s
Channel(s)                               : 6 channels
Channel positions                        : Front: L C R, Side: L R, LFE
Sampling rate                            : 48.0 kHz
Frame rate                               : 31.250 FPS (1536 SPF)
Bit depth                                : 16 bits
Compression mode                         : Lossy
Delay relative to video                  : 9 ms
Stream size                              : 502 MiB (2%)
Title                                    : French
Language                                 : French
Service kind                             : Complete Main
Default                                  : No
Forced                                   : No

Text #1
ID                                       : 4
Format                                   : UTF-8
Codec ID                                 : S_TEXT/UTF8
Codec ID/Info                            : UTF-8 Plain Text
Duration                                 : 1 h 45 min
Bit rate                                 : 87 b/s
Count of elements                        : 2056
Stream size                              : 67.9 KiB (0%)
Language                                 : English
Default                                  : No
Forced                                   : No

Text #2
ID                                       : 5
Format                                   : UTF-8
Codec ID                                 : S_TEXT/UTF8
Codec ID/Info                            : UTF-8 Plain Text
Duration                                 : 1 h 47 min
Bit rate                                 : 55 b/s
Count of elements                        : 1779
Stream size                              : 44.2 KiB (0%)
Title                                    : French
Language                                 : French
Default                                  : No
Forced                                   : No

Text #3
ID                                       : 6
Format                                   : UTF-8
Codec ID                                 : S_TEXT/UTF8
Codec ID/Info                            : UTF-8 Plain Text
Duration                                 : 1 h 39 min
Bit rate                                 : 0 b/s
Count of elements                        : 13
Stream size                              : 318 Bytes (0%)
Title                                    : French forced
Language                                 : French
Default                                  : No
Forced                                   : No




1 个附件 售价 大小 下载 时间

21.Jump.Street.2012.2160p.WEBRip.x265.10bit.HDR.DTS.5.1-GASMASK[btbtt.me].torrent 0 金币 68.96K 595 次 1月前

#1楼
发帖时间:2018-04-14 19:49:19   |   回复数:3
liyouchai
超凡入圣№
谢谢楼主分享资源
1月前 #2楼
blue23
隐世仙人♂
感谢楼主分享
1月前 #3楼
911degrees
超凡入圣№
非常感谢,谢谢分享
25天前 #4楼
游客组