aoloffline
版主

[更 早] [欧美] [喜剧] [WEB-1080P] [BT下载]Smack.and.Thistle.1991.1080p.AMZN.WEBRip.DD2.0.x264-QOQ 8.46GB

-->

Smack.and.Thistle.1991.1080p.AMZN.WEBRip.DD2.0.x264-QOQ

◎译  名 

◎片  名 Smack and Thistle

◎年  代 1991

◎产  地 英国

◎类  别 剧情

◎语  言 英语

◎上映日期 1991

◎IMDb评分  5.9/10 from 8 users

◎IMDb链接  http://www.imdb.com/title/tt0396873/

◎BT之家整理 http://www.btbtt.co 

◎导  演 Tunde Ikoli


◎简  介


  With a drug-addled lifestyle and a prison sentence firmly behind him| Abel is determined to go straight and stay clean... as soon as he's seen to one final heist. Inthe house that he burgles he comes across Elizabeth - rich| desperate| hopelessly addicted to a heroin and unconscious. Saving her from the clutched of an overdose|Abel stays out of compassion which eventually evolves into attraction. But when Abel takes on Elizabeth he also takes on her family. His resolution to go straighthas to go on the back burner while he struggles against a drugs conspiracy that stretched from the slums of the East End to the Houses of Parliament.


Video
ID                                       : 1
Format                                   : AVC
Format/Info                              : Advanced Video Codec
Format profile                           : High@L4
Format settings                          : CABAC / 4 Ref Frames
Format settings, CABAC                   : Yes
Format settings, ReFrames                : 4 frames
Codec ID                                 : V_MPEG4/ISO/AVC
Duration                                 : 1 h 34 min
Bit rate mode                            : Variable
Bit rate                                 : 12.5 Mb/s
Maximum bit rate                         : 15.0 Mb/s
Width                                    : 1 920 pixels
Height                                   : 1 080 pixels
Display aspect ratio                     : 4:3
Frame rate mode                          : Constant
Frame rate                               : 24.000 FPS
Color space                              : YUV
Chroma subsampling                       : 4:2:0
Bit depth                                : 8 bits
Scan type                                : Progressive
Bits/(Pixel*Frame)                       : 0.336
Stream size                              : 8.31 GiB (98%)
Default                                  : Yes
Forced                                   : No
Color range                              : Limited
Color primaries                          : BT.709
Transfer characteristics                 : BT.709
Matrix coefficients                      : BT.709

Audio
ID                                       : 2
Format                                   : E-AC-3
Format/Info                              : Enhanced Audio Coding 3
Codec ID                                 : A_EAC3
Duration                                 : 1 h 34 min
Bit rate mode                            : Constant
Bit rate                                 : 224 kb/s
Channel(s)                               : 2 channels
Channel positions                        : Front: L R
Sampling rate                            : 48.0 kHz
Frame rate                               : 187.500 FPS (256 SPF)
Compression mode                         : Lossy
Stream size                              : 152 MiB (2%)
Language                                 : English
Service kind                             : Complete Main
Default                                  : Yes
Forced                                   : No

Text
ID                                       : 3
Format                                   : UTF-8
Codec ID                                 : S_TEXT/UTF8
Codec ID/Info                            : UTF-8 Plain Text
Duration                                 : 1 h 32 min
Bit rate                                 : 42 b/s
Count of elements                        : 1237
Stream size                              : 28.7 KiB (0%)
Language                                 : English
Default                                  : No
Forced                                   : No




1 个附件 售价 大小 下载 时间

Smack.and.Thistle.1991.1080p.AMZN.WEBRip.DD2.0.x264-QOQ[btbtt.me].torrent 0 金币 85.12K 371 次 1月前

#1楼
发帖时间:2018-04-14 19:16:50   |   回复数:3
liyouchai
超凡入圣№
谢谢楼主分享资源
1月前 #2楼
blue23
隐世仙人♂
感谢楼主分享
1月前 #3楼
911degrees
超凡入圣№
非常感谢,谢谢分享
26天前 #4楼
游客组