aoloffline
版主

[2017] [欧美] [纪录] [WEB-1080P] [BT下载]Breaking.the.Cycle.2017.NO.1080p.NF.WEBRip.DD2.0.x264-SiGMA 2.1GB

-->

Breaking.the.Cycle.2017.NORWEGIAN.1080p.NF.WEBRip.DD2.0.x264-SiGMA

◎译  名 BreakingtheCycle

◎片  名 Vägen tillbak

◎年  代 2017

◎产  地 芬兰 Finland

◎类  别 纪录片

◎语  言 挪威语 Norwegian/英语

◎上映日期 2017-03-02(芬兰)

◎IMDb评分  7.0/10 from 131 users

◎IMDb链接  http://www.imdb.com/title/tt7208822/

◎BT之家整理 http://www.btbtt.co 

◎片  长 58分钟

◎导  演 Tomas Lindh / John Stark

◎主  演 Jan Strømnes


◎简  介


  The director of Halden prison, Norway's most humane prison, visits american prisons trying to encourage to change the ways of rehabilitation in prison.


Video
ID                                       : 1
Format                                   : AVC
Format/Info                              : Advanced Video Codec
Format profile                           : Main@L4
Format settings                          : CABAC / 3 Ref Frames
Format settings, CABAC                   : Yes
Format settings, ReFrames                : 3 frames
Codec ID                                 : V_MPEG4/ISO/AVC
Duration                                 : 57 min 32 s
Bit rate mode                            : Variable
Bit rate                                 : 5 110 kb/s
Maximum bit rate                         : 7 665 kb/s
Width                                    : 1 920 pixels
Height                                   : 1 080 pixels
Display aspect ratio                     : 16:9
Frame rate mode                          : Constant
Frame rate                               : 25.000 FPS
Color space                              : YUV
Chroma subsampling                       : 4:2:0
Bit depth                                : 8 bits
Scan type                                : Progressive
Bits/(Pixel*Frame)                       : 0.099
Stream size                              : 2.05 GiB (98%)
Writing library                          : x264 core 148
Encoding settings                        : cabac=1 / ref=3 / deblock=1:0:0 / analyse=0x1:0x111 / me=umh / subme=10 / psy=1 / psy_rd=1.00:0.00 / mixed_ref=1 / me_range=24 / chroma_me=1 / trellis=2 / 8x8dct=0 / cqm=0 / deadzone=21,11 / fast_pskip=1 / chroma_qp_offset=-2 / threads=8 / lookahead_threads=1 / sliced_threads=0 / nr=0 / decimate=1 / interlaced=0 / bluray_compat=0 / stitchable=1 / constrained_intra=0 / bframes=2 / b_pyramid=0 / b_adapt=2 / b_bias=0 / direct=3 / weightb=1 / open_gop=0 / weightp=2 / keyint=50 / keyint_min=26 / scenecut=0 / intra_refresh=0 / rc_lookahead=50 / rc=2pass / mbtree=1 / bitrate=5110 / ratetol=1.0 / qcomp=0.50 / qpmin=6 / qpmax=51 / qpstep=4 / cplxblur=20.0 / qblur=0.5 / vbv_maxrate=7665 / vbv_bufsize=10220 / nal_hrd=vbr / filler=0 / ip_ratio=1.40 / aq=1:1.00
Default                                  : Yes
Forced                                   : No

Audio
ID                                       : 2
Format                                   : E-AC-3
Format/Info                              : Enhanced Audio Coding 3
Codec ID                                 : A_EAC3
Duration                                 : 57 min 32 s
Bit rate mode                            : Constant
Bit rate                                 : 128 kb/s
Channel(s)                               : 2 channels
Channel positions                        : Front: L R
Sampling rate                            : 48.0 kHz
Frame rate                               : 187.500 FPS (256 SPF)
Compression mode                         : Lossy
Stream size                              : 52.7 MiB (2%)
Language                                 : Norwegian Bokmal
Service kind                             : Complete Main
Default                                  : Yes
Forced                                   : No

Text #1
ID                                       : 3
Format                                   : UTF-8
Codec ID                                 : S_TEXT/UTF8
Codec ID/Info                            : UTF-8 Plain Text
Duration                                 : 55 min 32 s
Bit rate                                 : 14 b/s
Count of elements                        : 132
Stream size                              : 5.88 KiB (0%)
Language                                 : English
Default                                  : No
Forced                                   : No

Text #2
ID                                       : 4
Format                                   : UTF-8
Codec ID                                 : S_TEXT/UTF8
Codec ID/Info                            : UTF-8 Plain Text
Duration                                 : 56 min 16 s
Bit rate                                 : 72 b/s
Count of elements                        : 594
Stream size                              : 30.0 KiB (0%)
Language                                 : Swedish
Default                                  : No
Forced                                   : No

Text #3
ID                                       : 5
Format                                   : UTF-8
Codec ID                                 : S_TEXT/UTF8
Codec ID/Info                            : UTF-8 Plain Text
Duration                                 : 57 min 10 s
Bit rate                                 : 79 b/s
Count of elements                        : 686
Stream size                              : 33.1 KiB (0%)
Language                                 : Norwegian Bokmal
Default                                  : No
Forced                                   : No

Text #4
ID                                       : 6
Format                                   : UTF-8
Codec ID                                 : S_TEXT/UTF8
Codec ID/Info                            : UTF-8 Plain Text
Duration                                 : 57 min 10 s
Bit rate                                 : 76 b/s
Count of elements                        : 685
Stream size                              : 32.2 KiB (0%)
Language                                 : Dutch
Default                                  : No
Forced                                   : No

Text #5
ID                                       : 7
Format                                   : UTF-8
Codec ID                                 : S_TEXT/UTF8
Codec ID/Info                            : UTF-8 Plain Text
Duration                                 : 57 min 9 s
Bit rate                                 : 76 b/s
Count of elements                        : 697
Stream size                              : 31.9 KiB (0%)
Language                                 : Danish
Default                                  : No
Forced                                   : No

Text #6
ID                                       : 8
Format                                   : UTF-8
Codec ID                                 : S_TEXT/UTF8
Codec ID/Info                            : UTF-8 Plain Text
Duration                                 : 56 min 46 s
Bit rate                                 : 65 b/s
Count of elements                        : 615
Stream size                              : 27.3 KiB (0%)
Language                                 : Finnish
Default                                  : No
Forced                                   : No




1 个附件 售价 大小 下载 时间

Breaking.the.Cycle.2017.NORWEGIAN.1080p.NF.WEBRip.DD2.0.x264-SiGMA[btbtt.me].torrent 0 金币 42.60K 406 次 1月前

#1楼
发帖时间:2018-04-14 19:09:59   |   回复数:3
liyouchai
超凡入圣№
谢谢楼主分享资源
1月前 #2楼
blue23
隐世仙人♂
感谢楼主分享
1月前 #3楼
911degrees
超凡入圣№
非常感谢,谢谢分享
26天前 #4楼
游客组