aoloffline
版主

[2013] [欧美] [剧情] [WEB-1080P] [BT下载]弱者 Underdogs.2013.1080p.AMZN.WEBRip.DD5.1.x264-QOQ 7.25GB

-->

Underdogs.2013.1080p.AMZN.WEBRip.DD5.1.x264-QOQ

◎译  名 弱者

◎片  名 Underdogs

◎年  代 2013

◎产  地 美国

◎类  别 剧情/家庭/运动

◎语  言 英语

◎IMDb评分  5.8/10 from 852 users

◎IMDb链接  http://www.imdb.com/title/tt2123342/

◎BT之家整理 http://www.btbtt.co

◎片  长 102分钟

◎导  演 Doug Dearth

◎主  演 D·B·斯威尼 D.B. Sweeney

      威廉·麦鲍瑟 William Mapother

      罗根·霍夫曼 Logan Huffman

      Charlie Carver


◎简  介


  故事发生在橄榄球的发源地——俄亥俄的乡下,

  一所小镇的高中足球队挑战同城的超级强队的故事。


Video
ID                                       : 1
Format                                   : AVC
Format/Info                              : Advanced Video Codec
Format profile                           : High@L4
Format settings                          : CABAC / 4 Ref Frames
Format settings, CABAC                   : Yes
Format settings, ReFrames                : 4 frames
Codec ID                                 : V_MPEG4/ISO/AVC
Duration                                 : 1 h 43 min
Bit rate mode                            : Variable
Bit rate                                 : 9 346 kb/s
Maximum bit rate                         : 15.0 Mb/s
Width                                    : 1 920 pixels
Height                                   : 1 080 pixels
Display aspect ratio                     : 16:9
Frame rate mode                          : Constant
Frame rate                               : 23.976 (24000/1001) FPS
Color space                              : YUV
Chroma subsampling                       : 4:2:0
Bit depth                                : 8 bits
Scan type                                : Progressive
Bits/(Pixel*Frame)                       : 0.188
Stream size                              : 6.78 GiB (94%)
Default                                  : Yes
Forced                                   : No
Color range                              : Limited
Color primaries                          : BT.709
Transfer characteristics                 : BT.709
Matrix coefficients                      : BT.709

Audio
ID                                       : 2
Format                                   : E-AC-3
Format/Info                              : Enhanced Audio Coding 3
Codec ID                                 : A_EAC3
Duration                                 : 1 h 43 min
Bit rate mode                            : Constant
Bit rate                                 : 640 kb/s
Channel(s)                               : 6 channels
Channel positions                        : Front: L C R, Side: L R, LFE
Sampling rate                            : 48.0 kHz
Frame rate                               : 187.500 FPS (256 SPF)
Compression mode                         : Lossy
Stream size                              : 476 MiB (6%)
Language                                 : English
Service kind                             : Complete Main
Default                                  : Yes
Forced                                   : No

Text #1
ID                                       : 3
Format                                   : UTF-8
Codec ID                                 : S_TEXT/UTF8
Codec ID/Info                            : UTF-8 Plain Text
Duration                                 : 1 h 43 min
Bit rate                                 : 78 b/s
Count of elements                        : 1963
Stream size                              : 59.9 KiB (0%)
Language                                 : English
Default                                  : No
Forced                                   : No

Text #2
ID                                       : 4
Format                                   : UTF-8
Codec ID                                 : S_TEXT/UTF8
Codec ID/Info                            : UTF-8 Plain Text
Duration                                 : 1 h 43 min
Bit rate                                 : 84 b/s
Count of elements                        : 2131
Stream size                              : 64.2 KiB (0%)
Title                                    : SDH
Language                                 : English
Default                                  : No
Forced                                   : No



1 个附件 售价 大小 下载 时间

Underdogs.2013.1080p.AMZN.WEBRip.DD5.1.x264-QOQ[btbtt.me].torrent 0 金币 73.04K 651 次 9月前

#1楼
发帖时间:2018-03-13 22:19:14   |   回复数:4
blue23
隐世仙人♂
感谢楼主分享
9月前 #2楼
liyouchai
超凡入圣№
谢谢楼主分享资源
9月前 #3楼
911degrees
隐世仙人♂
非常感谢,谢谢分享
9月前 #4楼
tanchoohoon
武林盟主
感谢楼主的无私分享!
9月前 #5楼
游客组