aoloffline
版主

[更 早] [欧美] [动作] [WEB-1080P] [BT下载]破坏者/玉面情魔 The.Spoilers.1942.1080p.WEB-DL.AAC2.0.H264-FGT 2.9GB

-->

The.Spoilers.1942.1080p.WEB-DL.AAC2.0.H264-FGT

◎译  名 破坏者/玉面情魔

◎片  名 The Spoilers

◎年  代 1942

◎产  地 美国

◎类  别 动作/爱情/西部

◎语  言 英语

◎上映日期 1942-05-08

◎IMDb评分  6.8/10 from 1,873 users

◎IMDb链接  http://www.imdb.com/title/tt0035369/

◎豆瓣评分 6.1/10 from 25 users

◎豆瓣链接 https://movie.douban.com/subject/2244843/

◎BT之家整理 http://www.btbtt.co

◎片  长 87 分钟

◎导  演 Ray Enright

◎主  演 玛琳·黛德丽 Marlene Dietrich

      兰道夫·斯科特 Randolph Scott

      约翰·韦恩 John Wayne


◎简  介


  In Nome, Alaska, miner Roy Glennister and his partner Dextry, financed by saloon entertainer Cherry Malotte, fight to save their gold claim from crooked commissioner Alexander McNamara.


◎获奖情况


  第15届奥斯卡金像奖  (1943)

  黑白片最佳艺术指导和室内布景(提名) Edward R. Robinson / 约翰·B·古德曼 / Jack Otterson / 罗素·A·盖斯曼


Video
ID                                       : 1
Format                                   : AVC
Format/Info                              : Advanced Video Codec
Format profile                           : High@L4
Format settings                          : CABAC / 5 Ref Frames
Format settings, CABAC                   : Yes
Format settings, ReFrames                : 5 frames
Codec ID                                 : V_MPEG4/ISO/AVC
Duration                                 : 1 h 27 min
Bit rate                                 : 4 670 kb/s
Width                                    : 1 450 pixels
Height                                   : 1 076 pixels
Display aspect ratio                     : 4:3
Frame rate mode                          : Constant
Frame rate                               : 23.976 (23976/1000) FPS
Color space                              : YUV
Chroma subsampling                       : 4:2:0
Bit depth                                : 8 bits
Scan type                                : Progressive
Bits/(Pixel*Frame)                       : 0.125
Stream size                              : 2.85 GiB (97%)
Title                                    : The.Spoilers.1942.1080p.WEB-DL.AAC2.0.H.264-FGT
Language                                 : English
Default                                  : Yes
Forced                                   : No
Color range                              : Limited
Color primaries                          : BT.709
Transfer characteristics                 : BT.709
Matrix coefficients                      : BT.709

Audio
ID                                       : 2
Format                                   : AAC
Format/Info                              : Advanced Audio Codec
Format profile                           : LC
Codec ID                                 : A_AAC-2
Duration                                 : 1 h 27 min
Bit rate                                 : 118 kb/s
Channel(s)                               : 2 channels
Channel positions                        : Front: L R
Sampling rate                            : 48.0 kHz
Frame rate                               : 46.875 FPS (1024 SPF)
Compression mode                         : Lossy
Stream size                              : 73.9 MiB (2%)
Title                                    : The.Spoilers.1942.1080p.WEB-DL.AAC2.0.H.264-FGT
Language                                 : English
Default                                  : Yes
Forced                                   : No

Text
ID                                       : 3
Format                                   : UTF-8
Codec ID                                 : S_TEXT/UTF8
Codec ID/Info                            : UTF-8 Plain Text
Duration                                 : 1 h 24 min
Bit rate                                 : 85 b/s
Count of elements                        : 1277
Stream size                              : 53.2 KiB (0%)
Language                                 : English
Default                                  : No
Forced                                   : No

Menu
00:00:00.000                             : en:Looking for Action (Main Titles)
00:05:22.000                             : eno Some Checking
00:09:40.000                             : en:The Boat鈥檚 Here!
00:16:00.000                             : en:Meet the Commissioner
00:19:48.000                             : en:Luck of the Draw
00:27:51.000                             : en:Legal Hocus-Pocus
00:31:01.000                             : en:Unfriendly Terms
00:35:57.000                             : en:Let鈥檚 Be Sensible
00:39:53.000                             : en:Seized Assets
00:43:28.000                             : en:Circuit Court Decision
00:47:59.000                             : en:Frozen Account
00:51:11.000                             : en:Gonna鈥
00:56:09.000                             : en:Wanted for Murder
01:02:11.000                             : en:A Cheap Lot
01:07:22.000                             : en:Big Shootin鈥
01:13:48.000                             : en:Taking Back What鈥檚 Mine
01:18:41.000                             : en:The Hard Way
01:26:56.000                             : en:End Titles




1 个附件 售价 大小 下载 时间

The.Spoilers.1942.1080p.WEB-DL.AAC2.0.H264-FGT[btbtt.me].torrent 0 金币 58.91K 609 次 6月前

#1楼
发帖时间:2018-03-13 19:16:25   |   回复数:3
blue23
隐世仙人♂
感谢楼主分享
6月前 #2楼
liyouchai
超凡入圣№
谢谢楼主分享资源
6月前 #3楼
911degrees
隐世仙人♂
非常感谢,谢谢分享
6月前 #4楼
游客组