aoloffline
版主

[2015] [欧美] [剧情] [WEB-1080P] [BT下载]单身在海滩 Single.in.South.Beach.2015.1080p.WEB-DL.DD5.1.H264-FGT 2.9GB

-->

Single.in.South.Beach.2015.1080p.WEB-DL.DD5.1.H264-FGT

◎译  名 单身在海滩

◎片  名 Single in South Beach

◎年  代 2015

◎产  地 美国

◎类  别 剧情

◎语  言 英语

◎IMDb评分  6.3/10 from 23 users

◎IMDb链接  http://www.imdb.com/title/tt1773687/

◎BT之家整理 http://www.btbtt.co

◎片  长 95分钟

◎导  演 Alejandro Itkin / 亨特·卡森 Hunter Carson

◎主  演 海雷·韦伯 Haley Webb

      Tinsel Korey

      凯文·索伯 Kevin Sorbo

      卡洛斯·庞丝 Carlos Ponce

      迈克·埃尔文 Mike Erwin

      Alex McKenna

      杰西卡·雪蒂 Jessica Sutta

      John Lewis

      Stephane Kay

      埃里克·阿拉贡 Eric Aragon

      Michelle Jones

      Andrea Conte

      文森·德·保罗 Vincent De Paul

      Louis Aguirre

      Ron Shimshilashvili


◎简  介


  Amy| an attractive single woman| confuses love with money and becomes victim of the materialism of South Beach| Miami. Her life reaches a point of no return and soondiscovers that in South Beach| not everything is as good as it looks.


Video
ID                                       : 1
Format                                   : AVC
Format/Info                              : Advanced Video Codec
Format profile                           : High@L4
Format settings                          : CABAC / 4 Ref Frames
Format settings, CABAC                   : Yes
Format settings, ReFrames                : 4 frames
Codec ID                                 : V_MPEG4/ISO/AVC
Duration                                 : 1 h 24 min
Bit rate                                 : 4 567 kb/s
Width                                    : 1 920 pixels
Height                                   : 1 080 pixels
Display aspect ratio                     : 16:9
Frame rate mode                          : Constant
Frame rate                               : 23.976 (24000/1001) FPS
Color space                              : YUV
Chroma subsampling                       : 4:2:0
Bit depth                                : 8 bits
Scan type                                : Progressive
Bits/(Pixel*Frame)                       : 0.092
Stream size                              : 2.69 GiB (92%)
Title                                    : Single.in.South.Beach.2015.1080p.WEB-DL.DD5.1.H.264-FGT
Default                                  : Yes
Forced                                   : No
Color range                              : Limited
Color primaries                          : BT.709
Transfer characteristics                 : BT.709
Matrix coefficients                      : BT.709

Audio
ID                                       : 2
Format                                   : AC-3
Format/Info                              : Audio Coding 3
Codec ID                                 : A_AC3
Duration                                 : 1 h 24 min
Bit rate mode                            : Constant
Bit rate                                 : 384 kb/s
Channel(s)                               : 6 channels
Channel positions                        : Front: L C R, Side: L R, LFE
Sampling rate                            : 44.1 kHz
Frame rate                               : 28.711 FPS (1536 SPF)
Bit depth                                : 16 bits
Compression mode                         : Lossy
Stream size                              : 232 MiB (8%)
Title                                    : Single.in.South.Beach.2015.1080p.WEB-DL.DD5.1.H.264-FGT
Language                                 : English
Service kind                             : Complete Main
Default                                  : Yes
Forced                                   : No

Text
ID                                       : 3
Format                                   : UTF-8
Codec ID                                 : S_TEXT/UTF8
Codec ID/Info                            : UTF-8 Plain Text
Duration                                 : 1 h 21 min
Bit rate                                 : 61 b/s
Count of elements                        : 1270
Stream size                              : 36.8 KiB (0%)
Language                                 : English
Default                                  : Yes
Forced                                   : No



1 个附件 售价 大小 下载 时间

Single.in.South.Beach.2015.1080p.WEB-DL.DD5.1.H264-FGT[btbtt.me].torrent 0 金币 58.97K 798 次 9月前

#1楼
发帖时间:2018-03-13 19:02:37   |   回复数:5
tanchoohoon
武林盟主
感谢楼主的无私分享!
9月前 #2楼
blue23
隐世仙人♂
感谢楼主分享
9月前 #3楼
liang3109
武林高手
多谢楼主分享。
9月前 #4楼
liyouchai
超凡入圣№
谢谢楼主分享资源
9月前 #5楼
911degrees
隐世仙人♂
非常感谢,谢谢分享
9月前 #6楼
游客组