aoloffline
版主

[2015] [欧美] [恐怖] [WEB-1080P] [BT下载]观察者 Observance.2015.1080p.WEB-DL.DD5.1.H264-FGT 2.93GB

-->

Observance.2015.1080p.WEB-DL.DD5.1.H264-FGT

◎译  名 观察者/監視者(台)

◎片  名 Observance

◎年  代 2015

◎产  地 澳大利亚

◎类  别 恐怖

◎语  言 英语

◎上映日期 2015-07-19(加拿大奇幻电影节)

◎IMDb评分  4.7/10 from 627 users

◎IMDb链接  http://www.imdb.com/title/tt3591988/

◎BT之家整理 http://www.btbtt.co

◎片  长 90分钟

◎导  演 Joseph Sims-Dennett

◎主  演 林赛·法瑞斯 Lindsay Farris

      Stephanie E. King

      布伦丹·考威尔 Brendan Cowell


◎简  介


  男主角是个可怜人。从年幼的儿子死去之后,他的婚姻就变得有名无实,濒临破碎。他本人一蹶不振,穷得破产,只好去做私家侦探。一天,他被雇佣去监视一个年轻美丽的女人,跟着她到了一座诡异的旧楼。从那天开始,他就像是被恶灵缠身一般,陷在噩梦里。


Video
ID                                       : 1
Format                                   : AVC
Format/Info                              : Advanced Video Codec
Format profile                           : High@L4
Format settings                          : CABAC / 4 Ref Frames
Format settings, CABAC                   : Yes
Format settings, ReFrames                : 4 frames
Codec ID                                 : V_MPEG4/ISO/AVC
Duration                                 : 1 h 26 min
Bit rate                                 : 4 468 kb/s
Width                                    : 1 920 pixels
Height                                   : 816 pixels
Display aspect ratio                     : 2.35:1
Frame rate mode                          : Constant
Frame rate                               : 23.976 (24000/1001) FPS
Color space                              : YUV
Chroma subsampling                       : 4:2:0
Bit depth                                : 8 bits
Scan type                                : Progressive
Bits/(Pixel*Frame)                       : 0.119
Stream size                              : 2.70 GiB (92%)
Title                                    : Observance.2015.1080p.WEB-DL.DD5.1.H.264-FGT
Default                                  : Yes
Forced                                   : No
Color range                              : Limited
Color primaries                          : BT.709
Transfer characteristics                 : BT.709
Matrix coefficients                      : BT.709

Audio
ID                                       : 2
Format                                   : AC-3
Format/Info                              : Audio Coding 3
Codec ID                                 : A_AC3
Duration                                 : 1 h 26 min
Bit rate mode                            : Constant
Bit rate                                 : 384 kb/s
Channel(s)                               : 6 channels
Channel positions                        : Front: L C R, Side: L R, LFE
Sampling rate                            : 44.1 kHz
Frame rate                               : 28.711 FPS (1536 SPF)
Bit depth                                : 16 bits
Compression mode                         : Lossy
Stream size                              : 237 MiB (8%)
Title                                    : Observance.2015.1080p.WEB-DL.DD5.1.H.264-FGT
Language                                 : English
Service kind                             : Complete Main
Default                                  : Yes
Forced                                   : No

Text
ID                                       : 3
Format                                   : UTF-8
Codec ID                                 : S_TEXT/UTF8
Codec ID/Info                            : UTF-8 Plain Text
Duration                                 : 1 h 21 min
Bit rate                                 : 23 b/s
Count of elements                        : 547
Stream size                              : 13.8 KiB (0%)
Language                                 : English
Default                                  : Yes
Forced                                   : No

Menu
00:00:00.000                             : en:Chapter 1
00:05:56.000                             : en:Chapter 2
00:10:13.000                             : en:Chapter 3
00:18:43.000                             : en:Chapter 4
00:39:46.000                             : en:Chapter 5
00:50:48.000                             : en:Chapter 6
01:15:27.000                             : en:Chapter 7
01:23:59.000                             : en:Chapter 8



1 个附件 售价 大小 下载 时间

Observance.2015.1080p.WEB-DL.DD5.1.H264-FGT[btbtt.me].torrent 0 金币 59.16K 763 次 3月前

#1楼
发帖时间:2018-03-13 18:59:15   |   回复数:4
blue23
隐世仙人♂
感谢楼主分享
3月前 #2楼
liang3109
小有名气
多谢楼主分享。
3月前 #3楼
liyouchai
超凡入圣№
谢谢楼主分享资源
3月前 #4楼
911degrees
隐世仙人♂
非常感谢,谢谢分享
3月前 #5楼
游客组