aoloffline
版主

[2009] [欧美] [剧情] [WEB-1080P] [BT下载]喝彩 Applaus.2009.1080p.AMZN.WEBRip.DDP2.0.x264-QOQ 8.72GB

-->

Applaus.2009.1080p.AMZN.WEBRip.DDP2.0.x264-QOQ

◎译  名 喝彩

◎片  名 Applaus

◎年  代 2009

◎产  地 丹麦

◎类  别 剧情

◎语  言 丹麦语

◎上映日期 2009-09-25

◎IMDb评分  6.7/10 from 881 users

◎IMDb链接  http://www.imdb.com/title/tt1314269/

◎豆瓣评分 6.8/10 from 26 users

◎豆瓣链接 https://movie.douban.com/subject/3845758/

◎BT之家整理 http://www.btbtt.co

◎片  长 85 分钟

◎导  演 Martin Zandvliet

◎主  演 Paprika Steen

      Michael Falch


◎简  介


  當紅女星提亞離婚後失去兒子的監護權,她不捨家人,告訴前夫她已經戒除酒癮,然而她接到一個困難度極高的舞台劇角色之後,生活再次崩解



Video
ID                                       : 2
Format                                   : AVC
Format/Info                              : Advanced Video Codec
Format profile                           : High@L4
Format settings                          : CABAC / 4 Ref Frames
Format settings, CABAC                   : Yes
Format settings, ReFrames                : 4 frames
Codec ID                                 : V_MPEG4/ISO/AVC
Duration                                 : 1 h 26 min
Bit rate mode                            : Variable
Bit rate                                 : 14.1 Mb/s
Maximum bit rate                         : 15.0 Mb/s
Width                                    : 1 920 pixels
Height                                   : 816 pixels
Display aspect ratio                     : 2.35:1
Frame rate mode                          : Constant
Frame rate                               : 23.976 (24000/1001) FPS
Color space                              : YUV
Chroma subsampling                       : 4:2:0
Bit depth                                : 8 bits
Scan type                                : Progressive
Bits/(Pixel*Frame)                       : 0.376
Stream size                              : 8.58 GiB (98%)
Writing library                          : x264 core 148 r2623 d5b2374
Encoding settings                        : cabac=1 / ref=4 / deblock=1:-1:-1 / analyse=0x3:0x133 / me=umh / subme=9 / psy=1 / psy_rd=1.00:0.15 / mixed_ref=1 / me_range=24 / chroma_me=1 / trellis=2 / 8x8dct=1 / cqm=0 / deadzone=21,11 / fast_pskip=1 / chroma_qp_offset=-3 / threads=25 / lookahead_threads=4 / sliced_threads=0 / nr=150 / decimate=1 / interlaced=0 / bluray_compat=0 / constrained_intra=0 / bframes=8 / b_pyramid=2 / b_adapt=2 / b_bias=0 / direct=3 / weightb=1 / open_gop=0 / weightp=2 / keyint=120 / keyint_min=61 / scenecut=0 / intra_refresh=0 / rc_lookahead=120 / rc=crf / mbtree=1 / crf=18.0 / qcomp=0.60 / qpmin=0 / qpmax=69 / qpstep=4 / vbv_maxrate=15000 / vbv_bufsize=31250 / crf_max=0.0 / nal_hrd=vbr / filler=0 / ip_ratio=1.40 / aq=3:1.00
Default                                  : Yes
Forced                                   : No
Color range                              : Limited
Color primaries                          : BT.709
Transfer characteristics                 : BT.709
Matrix coefficients                      : BT.709

Audio
ID                                       : 1
Format                                   : E-AC-3
Format/Info                              : Enhanced Audio Coding 3
Codec ID                                 : A_EAC3
Duration                                 : 1 h 26 min
Bit rate mode                            : Constant
Bit rate                                 : 224 kb/s
Channel(s)                               : 2 channels
Channel positions                        : Front: L R
Sampling rate                            : 48.0 kHz
Frame rate                               : 187.500 FPS (256 SPF)
Compression mode                         : Lossy
Stream size                              : 139 MiB (2%)
Language                                 : English
Service kind                             : Complete Main
Default                                  : Yes
Forced                                   : No





1 个附件 售价 大小 下载 时间

Applaus.2009.1080p.AMZN.WEBRip.DDP2.0.x264-QOQ[btbtt.me].torrent 0 金币 87.68K 511 次 3月前

#1楼
发帖时间:2018-03-13 18:48:51   |   回复数:4
tanchoohoon
武林盟主
感谢楼主的无私分享!
3月前 #2楼
blue23
隐世仙人♂
感谢楼主分享
3月前 #3楼
liyouchai
超凡入圣№
谢谢楼主分享资源
3月前 #4楼
911degrees
隐世仙人♂
非常感谢,谢谢分享
3月前 #5楼
游客组