aoloffline
版主

[2015] [欧美] [纪录] [BD-Remux] [BT下载]太空之旅 2015.DOCU.2160p.BluRay.REMUX.HEVC.SDR.DTS-FGT 15GB

-->

Journey.to.Space.2015.DOCU.2160p.BluRay.REMUX.HEVC.SDR.DTS-HD.MA.TrueHD.7.1.Atmos-FGT

◎译  名 太空之旅/宇宙之旅

◎片  名 Journey to Space

◎年  代 2015

◎产  地 美国

◎类  别 科幻/冒险/纪录片

◎语  言 英语

◎上映日期 2015-02-13(美国)/2015-04-08(北京电影节)

◎IMDb评分  6.5/10 from 483 users

◎IMDb链接  http://www.imdb.com/title/tt4292554/

◎豆瓣评分 8.0/10 from 82 users

◎豆瓣链接 https://movie.douban.com/subject/26420838/

◎BT之家整理 http://www.btbtt.co 

◎片  长 45分钟

◎导  演 Mark Krenzien

◎主  演 帕特里克·斯图尔特 Patrick Stewart

      Serena Aunon

      Lindsay Aitchison

      Chris Ferguson


◎简  介


  Journey To Space unveils a new era of unprecedented deep space exploration in dramatic giant screen film format. It tells the true exciting story of what the next chapter of space exploration holds for both the near- and long-term. “Journey To Space,” presented by The Boeing Company and Toyota, showcases the plans by NASA and the larger space community to land astronauts on Mars.



Video
ID                                       : 1
Format                                   : HEVC
Format/Info                              : High Efficiency Video Coding
Format profile                           : Main 10@L5.1@High
Codec ID                                 : V_MPEGH/ISO/HEVC
Duration                                 : 41 min 34 s
Bit rate                                 : 40.0 Mb/s
Width                                    : 3 840 pixels
Height                                   : 2 160 pixels
Display aspect ratio                     : 16:9
Frame rate mode                          : Constant
Frame rate                               : 23.976 (24000/1001) FPS
Color space                              : YUV
Chroma subsampling                       : 4:2:0
Bit depth                                : 10 bits
Bits/(Pixel*Frame)                       : 0.201
Stream size                              : 11.6 GiB (76%)
Title                                    : Journey.to.Space.2015.DOCU.2160p.BluRay.REMUX.HEVC.SDR.DTS-HD.MA.TrueHD.7.1.Atmos-FGT
Writing library                          : ATEME Titan KFE 3.7.3 (4.7.3.1001)
Default                                  : Yes
Forced                                   : No
Color range                              : Limited
Color primaries                          : BT.709
Transfer characteristics                 : BT.709
Matrix coefficients                      : BT.709

Audio #1
ID                                       : 2
Format                                   : TrueHD
Format profile                           : TrueHD+Atmos / TrueHD
Codec ID                                 : A_TRUEHD
Duration                                 : 41 min 34 s
Bit rate mode                            : Variable
Bit rate                                 : 4 208 kb/s
Maximum bit rate                         : 6 144 kb/s
Channel(s)                               : Object Based / 8 channels
Channel positions                        : Object Based / Front: L C R, Side: L R, Back: L R, LFE
Sampling rate                            :  / 48.0 kHz
Frame rate                               : 1 200.000 FPS (40 SPF)
Compression mode                         : Lossless
Stream size                              : 1.22 GiB (8%)
Title                                    : Journey.to.Space.2015.DOCU.2160p.BluRay.REMUX.HEVC.SDR.DTS-HD.MA.TrueHD.7.1.Atmos-FGT
Language                                 : English
Default                                  : Yes
Forced                                   : No

Audio #2
ID                                       : 3
Format                                   : DTS
Format/Info                              : Digital Theater Systems
Format profile                           : MA / Core
Codec ID                                 : A_DTS
Duration                                 : 41 min 34 s
Bit rate mode                            : Variable / Constant
Bit rate                                 : 3 552 kb/s / 1 509 kb/s
Channel(s)                               : 8 channels / 6 channels
Channel positions                        : Front: L C R, Side: L R, Back: L R, LFE / Front: L C R, Side: L R, LFE
Sampling rate                            : 48.0 kHz
Frame rate                               : 93.750 FPS (512 SPF)
Bit depth                                : 24 bits
Compression mode                         : Lossless / Lossy
Stream size                              : 1.03 GiB (7%)
Title                                    : Journey.to.Space.2015.DOCU.2160p.BluRay.REMUX.HEVC.SDR.DTS-HD.MA.TrueHD.7.1.Atmos-FGT
Language                                 : English
Default                                  : No
Forced                                   : No

Audio #3
ID                                       : 4
Format                                   : AC-3
Format/Info                              : Audio Coding 3
Codec ID                                 : A_AC3
Duration                                 : 41 min 34 s
Bit rate mode                            : Constant
Bit rate                                 : 640 kb/s
Channel(s)                               : 6 channels
Channel positions                        : Front: L C R, Side: L R, LFE
Sampling rate                            : 48.0 kHz
Frame rate                               : 31.250 FPS (1536 SPF)
Bit depth                                : 16 bits
Compression mode                         : Lossy
Stream size                              : 190 MiB (1%)
Title                                    : Journey.to.Space.2015.DOCU.2160p.BluRay.REMUX.HEVC.SDR.DTS-HD.MA.TrueHD.7.1.Atmos-FGT
Language                                 : English
Service kind                             : Complete Main
Default                                  : No
Forced                                   : No

Audio #4
ID                                       : 5
Format                                   : DTS
Format/Info                              : Digital Theater Systems
Format profile                           : MA / Core
Codec ID                                 : A_DTS
Duration                                 : 41 min 34 s
Bit rate mode                            : Variable / Constant
Bit rate                                 : 3 840 kb/s / 1 509 kb/s
Channel(s)                               : 6 channels
Channel positions                        : Front: L C R, Side: L R, LFE
Sampling rate                            : 48.0 kHz
Frame rate                               : 93.750 FPS (512 SPF)
Bit depth                                : 24 bits
Compression mode                         : Lossless / Lossy
Stream size                              : 1.13 GiB (7%)
Title                                    : Journey.to.Space.2015.DOCU.2160p.BluRay.REMUX.HEVC.SDR.DTS-HD.MA.TrueHD.7.1.Atmos-FGT
Language                                 : German
Default                                  : No
Forced                                   : No

Text
ID                                       : 6
Format                                   : UTF-8
Codec ID                                 : S_TEXT/UTF8
Codec ID/Info                            : UTF-8 Plain Text
Duration                                 : 38 min 46 s
Bit rate                                 : 71 b/s
Count of elements                        : 483
Stream size                              : 20.4 KiB (0%)
Title                                    : English-SRT
Language                                 : English
Default                                  : Yes
Forced                                   : No

Menu
00:00:00.000                             : en:Chapter 1
00:03:06.769                             : en:Chapter 2
00:05:48.973                             : en:Chapter 3
00:08:23.878                             : en:Chapter 4
00:10:55.738                             : en:Chapter 5
00:12:19.321                             : en:Chapter 6
00:15:04.153                             : en:Chapter 7
00:17:16.493                             : en:Chapter 8
00:20:31.230                             : en:Chapter 9
00:23:14.017                             : en:Chapter 10
00:23:51.555                             : en:Chapter 11
00:26:17.284                             : en:Chapter 12
00:28:08.103                             : en:Chapter 13
00:30:48.054                             : en:Chapter 14
00:33:43.271                             : en:Chapter 15
00:38:43.154                             : en:Chapter 16




1 个附件 售价 大小 下载 时间

Journey.to.Space.2015.DOCU.2160p.BluRay.REMUX.HEVC.SDR.DTS-HD.MA.TrueHD.7.1.Atmos-FGT[btbtt.me].torrent 0 金币 76.64K 924 次 3月前

#1楼
发帖时间:2018-02-13 15:41:40   |   回复数:4
GNing
武林高手
thank you
3月前 #2楼
liyouchai
超凡入圣№
谢谢楼主分享资源
3月前 #3楼
blue23
隐世仙人♂
感谢楼主分享
3月前 #4楼
911degrees
超凡入圣№
非常感谢,谢谢分享
2月前 #5楼
游客组