aoloffline
版主

[2015] [欧美] [纪录] [BD-Remux] [BT下载]狂野太平洋 2015.DOCU.2160p.BluRay.REMUX.HEVC.DTS-HD.MA.5.1-FGT 21GB

-->

The.Wild.Pacific.2015.DOCU.2160p.BluRay.REMUX.HEVC.DTS-HD.MA.5.1-FGT

◎译  名 狂野太平洋

◎片  名 The Wild Pacific

◎年  代 2015

◎产  地 英国

◎类  别 记录

◎语  言 英语

◎IMDb评分  7.5/10 from 16 users

◎IMDb链接  http://www.imdb.com/title/tt5912024/

◎BT之家整理 http://www.btbtt.me/

◎片  长 52分钟

◎导  演 Michael Watchulonis


◎简  介


  It is the largest body of water on earth| covering nearly 30% of our planet. Experience a vast ecosystem that is home to a stunning menagerie of creatures.


Video
ID                                       : 1
Format                                   : HEVC
Format/Info                              : High Efficiency Video Coding
Format profile                           : Main 10@L5.1@High
Codec ID                                 : V_MPEGH/ISO/HEVC
Duration                                 : 52 min 11 s
Bit rate                                 : 55.0 Mb/s
Width                                    : 3 840 pixels
Height                                   : 2 160 pixels
Display aspect ratio                     : 16:9
Frame rate mode                          : Constant
Frame rate                               : 23.976 (24000/1001) FPS
Original frame rate                      : 23.976 (23976/1000) FPS
Standard                                 : Component
Color space                              : YUV
Chroma subsampling                       : 4:2:0
Bit depth                                : 10 bits
Bits/(Pixel*Frame)                       : 0.277
Stream size                              : 20.1 GiB (93%)
Title                                    : Wild.Pacific.2015.DOCU.2160p.BluRay.REMUX.HEVC.DTS-HD.MA.5.1-FGT
Default                                  : Yes
Forced                                   : No
Color range                              : Limited
Color primaries                          : BT.709
Transfer characteristics                 : BT.709
Matrix coefficients                      : BT.709

Audio #1
ID                                       : 2
Format                                   : DTS
Format/Info                              : Digital Theater Systems
Format profile                           : MA / Core
Codec ID                                 : A_DTS
Duration                                 : 52 min 11 s
Bit rate mode                            : Variable / Constant
Bit rate                                 : 1 978 kb/s / 1 152 kb/s
Channel(s)                               : 6 channels
Channel positions                        : Front: L C R, Side: L R, LFE
Sampling rate                            : 48.0 kHz
Frame rate                               : 93.750 FPS (512 SPF)
Bit depth                                : 16 bits
Compression mode                         : Lossless / Lossy
Stream size                              : 738 MiB (3%)
Title                                    : Wild.Pacific.2015.DOCU.2160p.BluRay.REMUX.HEVC.DTS-HD.MA.5.1-FGT
Language                                 : English
Default                                  : Yes
Forced                                   : No

Audio #2
ID                                       : 3
Format                                   : DTS
Format/Info                              : Digital Theater Systems
Format profile                           : MA / Core
Codec ID                                 : A_DTS
Duration                                 : 52 min 11 s
Bit rate mode                            : Variable / Constant
Bit rate                                 : 2 048 kb/s / 1 152 kb/s
Channel(s)                               : 6 channels
Channel positions                        : Front: L C R, Side: L R, LFE
Sampling rate                            : 48.0 kHz
Frame rate                               : 93.750 FPS (512 SPF)
Bit depth                                : 16 bits
Compression mode                         : Lossless / Lossy
Stream size                              : 771 MiB (3%)
Title                                    : Wild.Pacific.2015.DOCU.2160p.BluRay.REMUX.HEVC.DTS-HD.MA.5.1-FGT
Language                                 : German
Default                                  : No
Forced                                   : No

Menu
00:00:00.000                             : en:Chapter 1
00:01:01.811                             : en:Chapter 2
00:07:54.140                             : en:Chapter 3
00:20:34.858                             : en:Chapter 4
00:32:30.239                             : en:Chapter 5
00:43:56.133                             : en:Chapter 6




1 个附件 售价 大小 下载 时间

The.Wild.Pacific.2015.DOCU.2160p.BluRay.REMUX.HEVC.DTS-HD.MA.5.1-FGT[btbtt.me].torrent 0 金币 54.38K 1813 次 9月前

#1楼
发帖时间:2018-02-11 23:44:23   |   回复数:4
liyouchai
超凡入圣№
谢谢楼主分享资源
9月前 #2楼
blue23
隐世仙人♂
感谢楼主分享
9月前 #3楼
jokingcheung
一代宗师
谢谢分享
9月前 #4楼
911degrees
隐世仙人♂
非常感谢,谢谢分享
8月前 #5楼
游客组