aoloffline
版主

[更 早] [欧美] [剧情] [BD-1080P] [BT下载]伊娃 Eva.1962.1080p.BluRay.x264.DTS-FGT 9.92GB

-->

Eva.1962.1080p.BluRay.x264.DTS-FGT

◎译  名 伊娃

◎片  名 Eva

◎年  代 1962

◎产  地 法国/意大利

◎类  别 剧情

◎语  言 英语/意大利语

◎上映日期 1962-10-03

◎IMDb评分  6.6/10 from 876 users

◎IMDb链接  http://www.imdb.com/title/tt0059160/

◎豆瓣评分 7.3/10 from 86 users

◎豆瓣链接 https://movie.douban.com/subject/1420219/

◎BT之家整理 http://www.btbtt.me/

◎片  长 116 分钟/USA: 107 分钟/Finland: 120 分钟(director's cut)/France: 104 分钟

◎导  演 约瑟夫·罗西 Joseph Losey

◎主  演 让娜·莫罗 Jeanne Moreau

      斯坦利·贝克 Stanley Baker

      维尔娜·丽丝 Virna Lisi


◎简  介


  A raw Welsh novelist in Venice is humiliated by a money-loving Frenchwoman who erotically ensnares him.


Video
ID                                       : 1
Format                                   : AVC
Format/Info                              : Advanced Video Codec
Format profile                           : High@L4.1
Format settings                          : CABAC / 4 Ref Frames
Format settings, CABAC                   : Yes
Format settings, ReFrames                : 4 frames
Codec ID                                 : V_MPEG4/ISO/AVC
Duration                                 : 1 h 49 min
Bit rate                                 : 11.5 Mb/s
Width                                    : 1 800 pixels
Height                                   : 1 080 pixels
Display aspect ratio                     : 5:3
Frame rate mode                          : Constant
Frame rate                               : 23.976 (24000/1001) FPS
Color space                              : YUV
Chroma subsampling                       : 4:2:0
Bit depth                                : 8 bits
Scan type                                : Progressive
Bits/(Pixel*Frame)                       : 0.247
Stream size                              : 8.77 GiB (88%)
Title                                    : Eva.1962.1080p.BluRay.x264.DTS-FGT
Writing library                          : x264 core 148 r2795M aaa9aa8
Encoding settings                        : cabac=1 / ref=4 / deblock=1:-2:-2 / analyse=0x3:0x113 / me=umh / subme=9 / psy=1 / psy_rd=1.00:0.15 / mixed_ref=1 / me_range=16 / chroma_me=1 / trellis=2 / 8x8dct=1 / cqm=0 / deadzone=21,11 / fast_pskip=1 / chroma_qp_offset=-3 / threads=24 / lookahead_threads=3 / sliced_threads=0 / nr=0 / decimate=1 / interlaced=0 / bluray_compat=0 / constrained_intra=0 / bframes=3 / b_pyramid=2 / b_adapt=2 / b_bias=0 / direct=3 / weightb=1 / open_gop=0 / weightp=2 / keyint=250 / keyint_min=25 / scenecut=40 / intra_refresh=0 / rc_lookahead=50 / rc=abr / mbtree=1 / bitrate=11500 / ratetol=1.0 / qcomp=0.60 / qpmin=0 / qpmax=69 / qpstep=4 / vbv_maxrate=31250 / vbv_bufsize=31250 / nal_hrd=none / filler=0 / ip_ratio=1.40 / aq=1:1.00
Language                                 : English
Default                                  : Yes
Forced                                   : No

Audio
ID                                       : 2
Format                                   : DTS
Format/Info                              : Digital Theater Systems
Codec ID                                 : A_DTS
Duration                                 : 1 h 49 min
Bit rate mode                            : Constant
Bit rate                                 : 1 509 kb/s
Channel(s)                               : 2 channels
Channel positions                        : Front: L R
Sampling rate                            : 48.0 kHz
Frame rate                               : 93.750 FPS (512 SPF)
Bit depth                                : 16 bits
Compression mode                         : Lossy
Stream size                              : 1.15 GiB (12%)
Title                                    : Eva.1962.1080p.BluRay.x264.DTS-FGT
Language                                 : English
Default                                  : Yes
Forced                                   : No

Menu
00:00:00.000                             : en:Chapter 01
00:00:22.022                             : en:Chapter 02
00:03:38.760                             : en:Chapter 03
00:05:35.293                             : en:Chapter 04
00:08:11.115                             : en:Chapter 05
00:13:43.823                             : en:Chapter 06
00:19:51.273                             : en:Chapter 07
00:24:56.828                             : en:Chapter 08
00:27:42.744                             : en:Chapter 09
00:29:46.618                             : en:Chapter 10
00:34:15.762                             : en:Chapter 11
00:38:34.061                             : en:Chapter 12
00:41:15.347                             : en:Chapter 13
00:45:40.154                             : en:Chapter 14
00:47:20.587                             : en:Chapter 15
00:50:43.415                             : en:Chapter 16
00:52:21.138                             : en:Chapter 17
00:54:08.036                             : en:Chapter 18
00:55:26.656                             : en:Chapter 19
00:57:04.879                             : en:Chapter 20
00:59:00.662                             : en:Chapter 21
01:02:06.806                             : en:Chapter 22
01:05:18.456                             : en:Chapter 23
01:11:57.187                             : en:Chapter 24
01:14:16.827                             : en:Chapter 25
01:18:40.132                             : en:Chapter 26
01:22:27.025                             : en:Chapter 27
01:27:46.261                             : en:Chapter 28
01:33:02.994                             : en:Chapter 29
01:37:24.088                             : en:Chapter 30
01:38:31.655                             : en:Chapter 31
01:45:54.639                             : en:Chapter 32
01:49:13.547                             : en:Chapter 33





1 个附件 售价 大小 下载 时间

Eva.1962.1080p.BluRay.x264.DTS-FGT[btbtt.me].torrent 0 金币 99.71K 833 次 6月前

#1楼
发帖时间:2018-02-07 11:28:48   |   回复数:3
liyouchai
超凡入圣№
谢谢楼主分享资源
6月前 #2楼
blue23
隐世仙人♂
感谢楼主分享
6月前 #3楼
jokingcheung
一代宗师
谢谢分享
6月前 #4楼
游客组