_KOOK
武林高手

[2006] [香港] [历史] [BD-1080P] [BT下载]墨攻.A Battle of Wits.2006.CN.HK.BluRay.1920x808p.x264.DTS-KOOK.[中英双字] 14.4G

-->

墨攻.A Battle of Wits.2006.CN.HK.BluRay.1920x808p.x264.DTS-KOOK.[中英双字] 14.4GB





※※※※※※※ 影片信息 ※※※※※※※


◎片   名 墨攻

◎译   名 A Battle of Wits

◎年   代 2006

◎国   家 中国大陆 / 香港 / 日本 / 韩国

◎类   别 剧情 / 动作 / 战争

◎语   言 国语

◎上映日 期 2006-11-23(香港)

◎字   幕 中英双字/简体字幕/繁体字幕/英文字幕

◎IMDB 评分  6.7/10 from 3505 users

◎豆瓣 评分  6.1/10 from 51001 users

◎视频尺 寸  1920x808p

◎片   长 2.12.48

◎导   演 张之亮

◎编     剧  张之亮 / 李树型 / 邓子峻 / 秦天南 / 酒见贤一

◎主   演 刘德华 / 安圣基 / 范冰冰 / 王志文 / 吴奇隆 




 

◎简  介



  诸国纷争群雄争霸的两千多年前,赵国为一举攻下势均力敌的燕国,决定先拿夹在赵燕之间的梁国开刀,于是妇孺平民加起只有四千余人的梁城被赵国十万大军包围。危难之时,梁王(王志文)向以守城著称的墨家请求一支可以抵抗赵军的守军,却等来其貌不扬孤身应战主张“兼爱非攻”的墨者革离(刘德 华)。 


  革离出奇制胜,令赵军无功而返,后为应付赵军随时而来的庞大攻击,又亲自练兵制造无数特别兵器,梁城上下对其无不折服,更得到逸悦将军(范冰冰)的爱慕,然而,杀气也在此时降临他的四周。








※※※※※※※ 参数信息 ※※※※※※※



General

Unique ID                      : 200071846899094268058920299905918093433 (0x96846FA410A05E0097113545C53AC879)


Format                         : Matroska

Format version                 : Version 4 / Version 2

File size                      : 14.5 GiB

Duration                       : 2 h 12 min

Overall bit rate               : 15.6 Mb/s

Encoded date                   : UTC 2017-11-29 09:24:00

Writing application            : mkvmerge v9.4.2 ('So High') 64bit

Writing library                : libebml v1.3.4 + libmatroska v1.4.5

Attachments                    : 正式海报 1.jpg / msyhbd.ttf / msyh.ttf


Video

ID                             : 1

Format                         : AVC

Format/Info                    : Advanced Video Codec

Format profile                 : Main@L4

Format settings, CABAC         : Yes

Format settings, ReFrames      : 1 frame

Format settings, GOP           : M=1, N=12

Codec ID                       : V_MPEG4/ISO/AVC

Duration                       : 2 h 12 min

Bit rate mode                  : Constant

Bit rate                       : 14.3 Mb/s

Width                          : 1 920 pixels

Height                         : 808 pixels

Display aspect ratio           : 2.40:1

Frame rate mode                : Constant

Frame rate                     : 23.976 (23976/1000) FPS

Original frame rate            : 24.000 FPS

Color space                    : YUV

Chroma subsampling             : 4:2:0

Bit depth                      : 8 bits

Scan type                      : Progressive

Bits/(Pixel*Frame)             : 0.384

Stream size                    : 13.0 GiB (90%)

Title                          : kook

Default                        : Yes

Forced                         : No


Audio

ID                             : 2

Format                         : DTS

Format/Info                    : Digital Theater Systems

Mode                           : 16

Format settings, Endianness    : Big

Codec ID                       : A_DTS

Duration                       : 2 h 12 min

Bit rate mode                  : Constant

Bit rate                       : 1 509 kb/s

Channel(s)                     : 6 channels

Channel positions              : Front: L C R, Side: L R, LFE

Sampling rate                  : 48.0 kHz

Frame rate                     : 93.750 FPS (512 spf)

Bit depth                      : 24 bits

Compression mode               : Lossy

Stream size                    : 1.40 GiB (10%)

Default                        : Yes

Forced                         : No


Text #1

ID                             : 3

Format                         : ASS

Codec ID                       : S_TEXT/ASS

Codec ID/Info                  : Advanced Sub Station Alpha

Duration                       : 2 h 8 min

Bit rate                       : 154 b/s

Count of elements              : 1455

Compression mode               : Lossless

Stream size                    : 146 KiB (0%)

Title                          : 中英字幕

Language                       : Chinese

Default                        : Yes

Forced                         : No


Text #2

ID                             : 4

Format                         : ASS

Codec ID                       : S_TEXT/ASS

Codec ID/Info                  : Advanced Sub Station Alpha

Duration                       : 2 h 8 min

Bit rate                       : 78 b/s

Count of elements              : 1455

Compression mode               : Lossless

Stream size                    : 74.2 KiB (0%)

Title                          : 简体字幕

Language                       : Chinese

Default                        : No

Forced                         : No


Text #3

ID                             : 5

Format                         : ASS

Codec ID                       : S_TEXT/ASS

Codec ID/Info                  : Advanced Sub Station Alpha

Duration                       : 2 h 8 min

Bit rate                       : 78 b/s

Count of elements              : 1455

Compression mode               : Lossless

Stream size                    : 74.2 KiB (0%)

Title                          : 繁体字幕

Language                       : Chinese

Default                        : No

Forced                         : No


Text #4

ID                             : 6

Format                         : ASS

Codec ID                       : S_TEXT/ASS

Codec ID/Info                  : Advanced Sub Station Alpha

Duration                       : 2 h 8 min

Bit rate                       : 124 b/s

Count of elements              : 1455

Compression mode               : Lossless

Stream size                    : 117 KiB (0%)

Title                          : 英文字幕

Language                       : English

Default                        : No

Forced                         : No






1 个附件 售价 大小 下载 时间

墨攻.A Battle of Wits.2006.CN.HK.BluRay.1920x808p.x264.DTS-KOOK.[中英双字].torrent 0 金币 150.46K 5931 次 7月前

#1楼
发帖时间:2017-12-02 13:43:18   |   回复数:7
911degrees
隐世仙人♂
非常感谢,谢谢分享
7月前 #2楼
yangbo83222179
一代宗师
谢谢楼主分享,支持一下
7月前 #3楼
liyouchai
超凡入圣№
谢谢楼主分享资源
7月前 #4楼
jokingcheung
一代宗师
谢谢分享
7月前 #5楼
dmcj
江湖小虾
谢谢分享
7月前 #6楼
tanchoohoon
武林盟主
谢谢楼主分享
7月前 #7楼
blue23
隐世仙人♂
感谢楼主分享
7月前 #8楼
游客组