_KOOK
武林高手

[2015] [新马] [剧情] [BD-1080P] [BT下载]情欲房.In The Room.2015.SG.HK.BluRay.1920x1080p.x264.AC3-KOOK.[中英字幕]7.68G

-->

情欲房.In The Room.2015.SG.HK.BluRay.1920x1080p.x264.AC3-KOOK.[中英字幕]7.68G



※※※※※※※ 影片信息 ※※※※※※※


◎片   名 情欲房

◎译   名 In The Room / 无限春光27

◎年   代 2015

◎国   家 新加坡 / 香港

◎类   别 剧情 / 情色

◎语   言 英语 / 日语 / 韩语 / 泰语 / 马来语 Malay

◎上映日 期 2016-04-21(香港)

◎字   幕 简体字幕/繁体字幕/英文字幕

◎IMDB 评分  4.5/10 from 310 users

◎豆瓣 评分  4.9/10 from 1980 users

◎视频尺 寸  1920x1080p

◎片   长 1.44.08

◎导   演 邱金海

◎编     剧  Jonathan Lim / Andrew Hook

◎主   演 何超仪 / 西野翔 / 崔宇植 / 金花雨 / Daniel Jenkins




 

◎简  介


  

  《In the Room》是一部由六部短片系列组成的长片电影,以一间酒店里的房间为背景,讲述了1940年-1990年期间住在这里的客人们的故事,是一部涵盖爱情和大尺度官能刺激的电影。 

  崔宇植将在片中饰演90年代故事《第一次》的主人公,是一个20岁的青年,他和好朋友也是他暗恋对象一起到新加坡背囊旅行,并在当地经历了变化无常的感情起伏过程。 

  影片导演邱金海曾凭借《我的魔法》成为首位入围戛纳电影节竞赛单元的新加坡导演,此前执导的《12楼》、《和我在一起》都曾参展戛纳。而曾监制《无间道》、《狄仁杰》、《晚秋》等影片的施南生此次也鼎力助阵为该片担任制作人。





※※※※※※※ 参数信息 ※※※※※※※




General

Unique ID                      : 213434731219624935112814498588798937135 (0xA09208B468842C62A6438CEBAD8AE82F)


Format                         : Matroska

Format version                 : Version 4 / Version 2

File size                      : 7.69 GiB

Duration                       : 1 h 44 min

Overall bit rate               : 10.6 Mb/s

Encoded date                   : UTC 2017-11-01 14:56:50

Writing application            : mkvmerge v9.4.2 ('So High') 64bit

Writing library                : libebml v1.3.4 + libmatroska v1.4.5

Attachments                    : msyh.ttf / msyhbd.ttf / 正式海报 台湾.jpg


Video

ID                             : 1

Format                         : AVC

Format/Info                    : Advanced Video Codec

Format profile                 : High@L4.1

Format settings, CABAC         : Yes

Format settings, ReFrames      : 4 frames

Codec ID                       : V_MPEG4/ISO/AVC

Duration                       : 1 h 44 min

Bit rate                       : 9 878 kb/s

Width                          : 1 920 pixels

Height                         : 1 080 pixels

Display aspect ratio           : 16:9

Frame rate mode                : Constant

Frame rate                     : 24.000 FPS

Color space                    : YUV

Chroma subsampling             : 4:2:0

Bit depth                      : 8 bits

Scan type                      : Progressive

Bits/(Pixel*Frame)             : 0.198

Stream size                    : 7.18 GiB (93%)

Writing library                : x264 core 148 r2705 3f5ed56

Encoding settings              : cabac=1 / ref=4 / deblock=1:0:0 / analyse=0x3:0x133 / me=umh / subme=7 / psy=1 / psy_rd=1.00:0.00 / mixed_ref=1 / me_range=16 / chroma_me=1 / trellis=1 / 8x8dct=1 / cqm=0 / deadzone=21,11 / fast_pskip=0 / chroma_qp_offset=-2 / threads=12 / lookahead_threads=2 / sliced_threads=0 / nr=0 / decimate=1 / interlaced=0 / bluray_compat=0 / constrained_intra=0 / bframes=3 / b_pyramid=2 / b_adapt=1 / b_bias=0 / direct=1 / weightb=1 / open_gop=0 / weightp=2 / keyint=250 / keyint_min=23 / scenecut=40 / intra_refresh=0 / rc_lookahead=40 / rc=2pass / mbtree=1 / bitrate=9878 / ratetol=1.0 / qcomp=0.60 / qpmin=0 / qpmax=69 / qpstep=4 / cplxblur=20.0 / qblur=0.5 / ip_ratio=1.40 / aq=1:1.00

Language                       : English

Default                        : Yes

Forced                         : No


Audio

ID                             : 2

Format                         : AC-3

Format/Info                    : Audio Coding 3

Mode extension                 : CM (complete main)

Format settings, Endianness    : Big

Codec ID                       : A_AC3

Duration                       : 1 h 44 min

Bit rate mode                  : Constant

Bit rate                       : 640 kb/s

Channel(s)                     : 6 channels

Channel positions              : Front: L C R, Side: L R, LFE

Sampling rate                  : 48.0 kHz

Frame rate                     : 31.250 FPS (1536 spf)

Compression mode               : Lossy

Stream size                    : 477 MiB (6%)

Language                       : English

Default                        : Yes

Forced                         : No


Text #1

ID                             : 3

Format                         : ASS

Codec ID                       : S_TEXT/ASS

Codec ID/Info                  : Advanced Sub Station Alpha

Duration                       : 1 h 40 min

Bit rate                       : 87 b/s

Count of elements              : 868

Compression mode               : Lossless

Stream size                    : 64.7 KiB (0%)

Title                          : 简体字幕

Language                       : Chinese

Default                        : Yes

Forced                         : No


Text #2

ID                             : 4

Format                         : ASS

Codec ID                       : S_TEXT/ASS

Codec ID/Info                  : Advanced Sub Station Alpha

Duration                       : 1 h 40 min

Bit rate                       : 87 b/s

Count of elements              : 868

Compression mode               : Lossless

Stream size                    : 64.7 KiB (0%)

Title                          : 繁体字幕

Language                       : Chinese

Default                        : No

Forced                         : No


Text #3

ID                             : 5

Format                         : UTF-8

Codec ID                       : S_TEXT/UTF8

Codec ID/Info                  : UTF-8 Plain Text

Duration                       : 1 h 25 min

Bit rate                       : 18 b/s

Count of elements              : 548

Stream size                    : 11.9 KiB (0%)

Title                          : 英文字幕

Language                       : English

Default                        : No

Forced                         : Yes


Menu

00:00:00.000                   : en:00:00:00.000

00:11:46.917                   : en:00:11:46.917

00:20:25.667                   : en:00:20:25.667

00:26:52.667                   : en:00:26:52.667

00:32:17.542                   : en:00:32:17.542

00:42:52.458                   : en:00:42:52.458

00:54:41.292                   : en:00:54:41.292

01:00:45.250                   : en:01:00:45.250

01:09:40.333                   : en:01:09:40.333

01:17:27.000                   : en:01:17:27.000

01:29:50.000                   : en:01:29:50.000

01:37:37.500                   : en:01:37:37.500


1 个附件 售价 大小 下载 时间

情欲房.In The Room.2015.SG.HK.BluRay.1920x1080p.x264.AC3-KOOK.[中英字幕].torrent 0 金币 159.23K 8257 次 2月前

#1楼
发帖时间:2017-11-02 19:15:29   |   回复数:9
s3364500
一代宗师
感谢分享~~~~
2月前 #2楼
tanchoohoon
武林盟主
感谢楼主分享
2月前 #3楼
liyouchai
超凡入圣№
谢谢楼主分享资源
2月前 #4楼
奥沙利文
一派掌门
顶!!!!!!!!!!!!!!!!
2月前 #5楼
kola13
武林高手
感谢分享
2月前 #6楼
911degrees
超凡入圣№
非常感谢,谢谢分享
2月前 #7楼
tanchoohoon
武林盟主
感谢楼主分享
2月前 #8楼
blue23
隐世仙人♂
感谢楼主分享
2月前 #9楼
jokingcheung
一代宗师
谢谢分享
2月前 #10楼
游客组