_KOOK
武林高手

[2012] [韩国] [历史] [BD-1080P] [BT下载]后宫:帝王之妾.The Concubine.2012.KR.BluRay.1920x1040p.x264.AC3.2Audios-KOOK.[韩粤双

-->

后宫:帝王之妾.The Concubine.2012.KR.BluRay.1920x1040p.x264.AC3.2Audios-KOOK.[韩粤双语.中英字幕]





※※※※※※※ 影片信息 ※※※※※※※


◎片   名 The Concubine

◎译   名 后宫:帝王之妾 / 满宫春(港) / 后宫:色欲天下(台) / 后宫 

◎年   代 2012

◎国   家 韩国

◎类   别 剧情 / 情色 / 历史

◎语   言 韩语 / 粤语

◎上映日 期 2012-06-06(韩国)

◎字   幕 简体字幕/繁体字幕/英文字幕

◎IMDB 评分  6.1/10 from 884 users

◎豆瓣 评分  5.5/10 from 11366 users

◎视频尺 寸  1920x1040p

◎片   长 1.33.54

◎导   演 金大胜

◎编     剧  金大胜 / 金美正

◎主   演 金民俊 / 赵汝贞 / 金东旭 / 曹恩智 / 朴智英




 

◎简  介

   

     圣源(金东旭 Dong-wook Kim 饰)还是世子时,在大臣申参判家偶遇其女华妍(赵茹珍 Yeo-Jeong Jo 饰),一见倾心。但其母后为了自己的政治野心将华妍许配给了他同父异母的哥哥作王后,圣源因此远走他乡。华妍本与家中的仆人权侑(金民俊 Min-jun Kim 饰)是一对恋人,无意间得知将要入宫为妃,因而私奔却被父亲抓到,为了保全恋人性命无奈入宫。五年后殿下病重,在母后的阴谋和安排下圣源大君回宫继承了王位当了傀儡皇帝,华妍的父亲也在政变中遭遇其母后迫害被处死。此时的圣源大君遇到已成为皇嫂的华研,权利的束缚更燃烧了他心中禁忌的欲望。而保住性命的家奴权侑私奔失败后却被申参叛阉割,为了登上权力的顶峰报仇雪恨进宫当了内侍,忍辱偷生。以宫廷斗争为背景,三人命运交织,在爱欲和权力,激情与仇恨的矛盾冲突下酝酿着一场悲剧。

   





※※※※※※※ 参数信息 ※※※※※※※



General

Unique ID                      : 229807633514846559479078695778307880023 (0xACE3571CD1CC7829B546243E28D93457)


Format                         : Matroska

Format version                 : Version 4 / Version 2

File size                      : 6.88 GiB

Duration                       : 1 h 33 min

Overall bit rate               : 10.5 Mb/s

Encoded date                   : UTC 2017-09-06 12:56:29

Writing application            : mkvmerge v9.4.2 ('So High') 64bit

Writing library                : libebml v1.3.4 + libmatroska v1.4.5

Attachments                    : 正式海报 韩国.jpg / STKAITI.TTF / msyh.ttf / msyhbd.ttf


Video

ID                             : 1

Format                         : AVC

Format/Info                    : Advanced Video Codec

Format profile                 : High@L4.1

Format settings, CABAC         : Yes

Format settings, ReFrames      : 4 frames

Codec ID                       : V_MPEG4/ISO/AVC

Duration                       : 1 h 33 min

Bit rate                       : 9 387 kb/s

Width                          : 1 920 pixels

Height                         : 1 040 pixels

Display aspect ratio           : 1.85:1

Frame rate mode                : Constant

Frame rate                     : 23.976 (24000/1001) FPS

Color space                    : YUV

Chroma subsampling             : 4:2:0

Bit depth                      : 8 bits

Scan type                      : Progressive

Bits/(Pixel*Frame)             : 0.196

Stream size                    : 6.16 GiB (89%)

Title                          : The Concubine (2012)

Writing library                : x264 core 133 r2334 a3ac64b

Encoding settings              : cabac=1 / ref=4 / deblock=1:-3:-3 / analyse=0x3:0x133 / me=umh / subme=11 / psy=1 / psy_rd=1.00:0.00 / mixed_ref=1 / me_range=32 / chroma_me=1 / trellis=2 / 8x8dct=1 / cqm=0 / deadzone=21,11 / fast_pskip=0 / chroma_qp_offset=-2 / threads=18 / lookahead_threads=2 / sliced_threads=0 / nr=0 / decimate=1 / interlaced=0 / bluray_compat=0 / constrained_intra=0 / bframes=4 / b_pyramid=2 / b_adapt=2 / b_bias=0 / direct=3 / weightb=1 / open_gop=0 / weightp=2 / keyint=250 / keyint_min=23 / scenecut=40 / intra_refresh=0 / rc=crf / mbtree=0 / crf=18.2 / qcomp=0.60 / qpmin=0 / qpmax=69 / qpstep=7 / ip_ratio=1.40 / pb_ratio=1.30 / aq=2:1.00

Language                       : Korean

Default                        : Yes

Forced                         : No


Audio #1

ID                             : 2

Format                         : AC-3

Format/Info                    : Audio Coding 3

Mode extension                 : CM (complete main)

Format settings, Endianness    : Big

Codec ID                       : A_AC3

Duration                       : 1 h 33 min

Bit rate mode                  : Constant

Bit rate                       : 640 kb/s

Channel(s)                     : 6 channels

Channel positions              : Front: L C R, Side: L R, LFE

Sampling rate                  : 48.0 kHz

Frame rate                     : 31.250 FPS (1536 spf)

Compression mode               : Lossy

Stream size                    : 430 MiB (6%)

Title                          : 韩语Korean AC3 5.1

Language                       : Korean

Default                        : Yes

Forced                         : No


Audio #2

ID                             : 3

Format                         : AC-3

Format/Info                    : Audio Coding 3

Mode extension                 : CM (complete main)

Format settings, Endianness    : Big

Codec ID                       : A_AC3

Duration                       : 1 h 33 min

Bit rate mode                  : Constant

Bit rate                       : 384 kb/s

Channel(s)                     : 2 channels

Channel positions              : Front: L R

Sampling rate                  : 48.0 kHz

Frame rate                     : 31.250 FPS (1536 spf)

Compression mode               : Lossy

Stream size                    : 258 MiB (4%)

Title                          : 粤语Cantonese AC3 2.0

Language                       : Chinese

Default                        : No

Forced                         : No


Text #1

ID                             : 4

Format                         : ASS

Codec ID                       : S_TEXT/ASS

Codec ID/Info                  : Advanced Sub Station Alpha

Duration                       : 1 h 29 min

Bit rate                       : 140 b/s

Count of elements              : 969

Compression mode               : Lossless

Stream size                    : 92.3 KiB (0%)

Title                          : 简体字幕

Language                       : Chinese

Default                        : Yes

Forced                         : No


Text #2

ID                             : 5

Format                         : ASS

Codec ID                       : S_TEXT/ASS

Codec ID/Info                  : Advanced Sub Station Alpha

Duration                       : 1 h 29 min

Bit rate                       : 140 b/s

Count of elements              : 969

Compression mode               : Lossless

Stream size                    : 92.3 KiB (0%)

Title                          : 繁体字幕

Language                       : Chinese

Default                        : No

Forced                         : No


Text #3

ID                             : 6

Format                         : PGS

Muxing mode                    : zlib

Codec ID                       : S_HDMV/PGS

Codec ID/Info                  : Picture based subtitle format used on BDs/HD-DVDs

Duration                       : 1 h 28 min

Bit rate                       : 7 640 b/s

Count of elements              : 1926

Stream size                    : 4.83 MiB (0%)

Title                          : 英文字幕

Language                       : English

Default                        : No

Forced                         : No





#1楼
发帖时间:2017-09-07 11:56:15   |   回复数:4
jokingcheung
一代宗师
谢谢分享
7月前 #2楼
911degrees
超凡入圣№
非常感谢,谢谢分享

7月前 #3楼
liyouchai
超凡入圣№
谢谢楼主分享资源
7月前 #4楼
blue23
隐世仙人♂
感谢楼主分享
7月前 #5楼
游客组