aoloffline
版主

[更 早] [欧美] [悬疑] [WEB-1080P] [BT下载]零办法/零效益/零效应 Zero.Effect.1998.1080p.WEBRip.DD5.1.x264-monkee 10.78GB

-->

◎译  名 零办法/零效益/零效应

◎片  名 Zero Effect

◎年  代 1998

◎国  家 美国

◎类  别 喜剧/惊悚/悬疑

◎语  言 英语

◎上映日期 1998-01-30

◎IMDb评分  7.0/10 from 12,584 users

◎IMDb链接  http://www.imdb.com/title/tt0120906/

◎豆瓣评分 7.5/10 from 82 users

◎豆瓣链接 https://movie.douban.com/subject/1292691/

◎BT之家整理 http://www.btbtt.co 

◎片  长 116 分钟

◎导  演 杰克 卡斯丹

◎主  演 Ben Stiller

      Bill Pullman

      Ryan O'Neal


◎简  介


  「寒血无情」是私家侦探最须俱备的特质,戴瑞(比尔普曼饰)就因此成为世上少有的优秀侦探。他没有私人的牵扯,不会产生愚蠢的激情,只有工作。戴瑞的助理史提夫(班史提勒饰)则能言善道,让客户无法了解戴瑞神秘的生活方式。两人联手侦破了许多最棘手的案件,但这次却遭逢前所未有的挑战。木材业钜子史塔克(雷恩欧尼尔饰)遗失了保险箱钥匙,虽然要求戴瑞帮他寻找,却不提供任何线索、不透露一点讯息,也隐瞒他被勒索的内幕。此时,戴瑞又碰上从来没遇过的困扰一跟一名优美女子发生情感纠葛。他要如何在心思受绊的情形下侦查案件?那串遗失的钥匙又在何方



Video
ID                                       : 1
Format                                   : AVC
Format/Info                              : Advanced Video Codec
Format profile                           : High@L4
Format settings, CABAC                   : Yes
Format settings, ReFrames                : 4 frames
Codec ID                                 : V_MPEG4/ISO/AVC
Duration                                 : 1h 56mn
Bit rate mode                            : Variable
Bit rate                                 : 13.1 Mbps
Maximum bit rate                         : 15.0 Mbps
Width                                    : 1 920 pixels
Height                                   : 1 080 pixels
Display aspect ratio                     : 16:9
Frame rate mode                          : Constant
Frame rate                               : 23.976 (24000/1001) fps
Color space                              : YUV
Chroma subsampling                       : 4:2:0
Bit depth                                : 8 bits
Scan type                                : Progressive
Bits/(Pixel*Frame)                       : 0.263
Stream size                              : 10.6 GiB (98%)
Default                                  : Yes
Forced                                   : No
Color range                              : Limited
Color primaries                          : BT.709
Transfer characteristics                 : BT.709
Matrix coefficients                      : BT.709

Audio
ID                                       : 2
Format                                   : E-AC-3
Format/Info                              : Audio Coding 3
Format settings, Endianness              : Big
Codec ID                                 : A_EAC3
Duration                                 : 1h 56mn
Bit rate mode                            : Constant
Bit rate                                 : 224 Kbps
Channel(s)                               : 2 channels
Channel positions                        : Front: L R
Sampling rate                            : 48.0 KHz
Frame rate                               : 187.500 fps (256 spf)
Compression mode                         : Lossy
Stream size                              : 186 MiB (2%)
Language                                 : English
Default                                  : Yes
Forced                                   : No

Text
ID                                       : 3
Format                                   : UTF-8
Codec ID                                 : S_TEXT/UTF8
Codec ID/Info                            : UTF-8 Plain Text
Duration                                 : 1h 55mn
Bit rate                                 : 66 bps
Count of elements                        : 2084
Stream size                              : 56.8 KiB (0%)
Language                                 : English
Default                                  : No
Forced                                   : No





1 个附件 售价 大小 下载 时间

Zero.Effect.1998.1080p.WEBRip.DD5.1.x264-monkee[btbtt.co].torrent 0 金币 54.50K 802 次 8月前

#1楼
发帖时间:2017-01-12 19:24:14   |   回复数:3
blue23
超凡入圣№
感谢楼主分享
8月前 #2楼
liyouchai
超凡入圣№
谢谢楼主分享资源
8月前 #3楼
911degrees
一代宗师
非常感谢,谢谢分享
8月前 #4楼
游客组