aoloffline
版主

[2007] [欧美] [喜剧] [WEB-1080P] [BT下载]四人帮 The.Foursome.2007.1080p.WEBRip.AAC2.0.x264-TrollHD 6.7GB

-->

◎译  名 四人帮

◎片  名 The Foursome

◎年  代 2006

◎国  家 加拿大/美国

◎类  别 喜剧

◎语  言 英语

◎上映日期 2006

◎IMDb评分  4.6/10 from 433 users

◎IMDb链接  http://www.imdb.com/title/tt0478802/

◎BT之家整理 http://www.btbtt.co 

◎导  演 William Dear

◎主  演 凯文·狄龙 Kevin Dillon

      John Shaw

      克里斯·高瑟 Chris Gauthier


◎简  介


  Four old friends reconnect at their 20-year college reunion.



Video
ID                                       : 1
Format                                   : AVC
Format/Info                              : Advanced Video Codec
Format profile                           : High@L4
Format settings, CABAC                   : Yes
Format settings, ReFrames                : 4 frames
Format settings, GOP                     : M=4, N=60
Codec ID                                 : avc1
Codec ID/Info                            : Advanced Video Coding
Duration                                 : 1h 34mn
Bit rate mode                            : Constant
Bit rate                                 : 10 000 Kbps
Width                                    : 1 920 pixels
Height                                   : 1 080 pixels
Display aspect ratio                     : 16:9
Frame rate mode                          : Constant
Frame rate                               : 29.970 (30000/1001) fps
Standard                                 : NTSC
Color space                              : YUV
Chroma subsampling                       : 4:2:0
Bit depth                                : 8 bits
Scan type                                : Progressive
Bits/(Pixel*Frame)                       : 0.161
Stream size                              : 6.61 GiB (99%)
Language                                 : English
Encoded date                             : UTC 2014-06-01 11:34:12
Tagged date                              : UTC 2014-06-01 11:34:12
Color range                              : Limited
Color primaries                          : BT.709
Transfer characteristics                 : BT.709
Matrix coefficients                      : BT.709

Audio
ID                                       : 2
Format                                   : AAC
Format/Info                              : Advanced Audio Codec
Format profile                           : LC
Codec ID                                 : 40
Duration                                 : 1h 34mn
Bit rate mode                            : Variable
Bit rate                                 : 125 Kbps
Maximum bit rate                         : 576 Kbps
Channel(s)                               : 2 channels
Channel positions                        : Front: L R
Sampling rate                            : 48.0 KHz
Frame rate                               : 46.875 fps (1024 spf)
Compression mode                         : Lossy
Stream size                              : 85.0 MiB (1%)
Language                                 : English
Encoded date                             : UTC 2014-06-01 11:34:12
Tagged date                              : UTC 2014-06-01 11:34:12





1 个附件 售价 大小 下载 时间

The.Foursome.2007.1080p.WEBRip.AAC2.0.x264-TrollHD[btbtt.co].torrent 0 金币 67.61K 516 次 6月前

#1楼
发帖时间:2017-01-12 19:10:25   |   回复数:3
blue23
超凡入圣№
感谢楼主分享
6月前 #2楼
liyouchai
超凡入圣№
谢谢楼主分享资源
6月前 #3楼
911degrees
一代宗师
非常感谢,谢谢分享
6月前 #4楼
游客组