aoloffline
版主

[更 早] [欧美] [喜剧] [WEB-1080P] [BT下载]保姆俱乐部 The.Baby-Sitters.Club.1995.1080p.WEBRip.AAC2.0.x264-TrollHD 6.3GB

-->

◎译  名 保姆俱乐部

◎片  名 The Baby-Sitters Club

◎年  代 1995

◎国  家 美国

◎类  别 喜剧/剧情/家庭

◎语  言 英语

◎上映日期 1995-08-18(美国)

◎IMDb评分  5.7/10 from 4,399 users

◎IMDb链接  http://www.imdb.com/title/tt0112435/

◎豆瓣评分 7.7/10 from 47 users

◎豆瓣链接 https://movie.douban.com/subject/1908240/

◎BT之家整理 http://www.btbtt.co 

◎片  长 94 分钟

◎导  演 梅勒妮·梅隆 Melanie Mayron

◎主  演 斯科勒·费斯科 Schuyler Fisk

      瑞切尔·蕾·库克 Rachael Leigh Cook

      拉丽莎·奥蕾尼克 Larisa Oleynik

      布雷·布莱尔 Bre Blair


◎简  介


  Based on the bestselling book series about seven friends whose babysitting business leads to one adventure after another. When tomboy Kristy| president of the club|has a brilliant idea to run a summer day camp| the girls all agree it's the perfect way to spend their summer--together! But life gets complicated as buddingromance| family problems and a trio of scheming snobs all conspire to ruin the club. The BSC gang learn for themselves the amazing power of friendship.


Video
ID                                       : 1
Format                                   : AVC
Format/Info                              : Advanced Video Codec
Format profile                           : High@L4
Format settings, CABAC                   : Yes
Format settings, ReFrames                : 4 frames
Format settings, GOP                     : M=4, N=50
Codec ID                                 : avc1
Codec ID/Info                            : Advanced Video Coding
Duration                                 : 1h 30mn
Bit rate mode                            : Constant
Bit rate                                 : 10 000 Kbps
Width                                    : 1 920 pixels
Height                                   : 1 080 pixels
Display aspect ratio                     : 16:9
Frame rate mode                          : Constant
Frame rate                               : 25.000 fps
Standard                                 : PAL
Color space                              : YUV
Chroma subsampling                       : 4:2:0
Bit depth                                : 8 bits
Scan type                                : Progressive
Bits/(Pixel*Frame)                       : 0.193
Stream size                              : 6.31 GiB (99%)
Language                                 : English
Encoded date                             : UTC 2014-02-10 09:31:28
Tagged date                              : UTC 2014-02-10 09:31:28
Color range                              : Limited
Color primaries                          : BT.709
Transfer characteristics                 : BT.709
Matrix coefficients                      : BT.709

Audio
ID                                       : 2
Format                                   : AAC
Format/Info                              : Advanced Audio Codec
Format profile                           : LC
Codec ID                                 : 40
Duration                                 : 1h 30mn
Bit rate mode                            : Variable
Bit rate                                 : 125 Kbps
Maximum bit rate                         : 153 Kbps
Channel(s)                               : 2 channels
Channel positions                        : Front: L R
Sampling rate                            : 48.0 KHz
Frame rate                               : 46.875 fps (1024 spf)
Compression mode                         : Lossy
Stream size                              : 81.0 MiB (1%)
Language                                 : English
Encoded date                             : UTC 2014-02-10 09:31:28
Tagged date                              : UTC 2014-02-10 09:31:28





1 个附件 售价 大小 下载 时间

The.Baby-Sitters.Club.1995.1080p.WEBRip.AAC2.0.x264-TrollHD[btbtt.co].torrent 0 金币 64.51K 431 次 4月前

#1楼
发帖时间:2017-01-12 19:04:15   |   回复数:3
blue23
超凡入圣№
感谢楼主分享
4月前 #2楼
liyouchai
超凡入圣№
谢谢楼主分享资源
4月前 #3楼
911degrees
一代宗师
非常感谢,谢谢分享
4月前 #4楼
游客组