aoloffline
版主

[2011] [欧美] [喜剧] [WEB-1080P] [BT下载]带我回家 Take.Me.Home.2011.1080p.WEBRip.DD2.0.x264-monkee 3.49GB

-->

◎译  名 带我回家

◎片  名 Take Me Home

◎年  代 2011

◎国  家 美国

◎类  别 剧情/喜剧

◎语  言 英语

◎上映日期 2011

◎IMDb评分  6.9/10 from 5,973 users

◎IMDb链接  http://www.imdb.com/title/tt1261954/

◎豆瓣评分 7.3/10 from 812 users

◎豆瓣链接 https://movie.douban.com/subject/5182075/

◎BT之家整理 http://www.btbtt.co 

◎导  演 山姆·贾格 Sam Jaeger

◎主  演 维克多·加博 Victor Garber

      山姆·贾格 Sam Jaeger

      林·沙烨 Lin Shaye

      布丽·特纳 Bree Turner

      安布尔·耶格 Amber Jaeger


◎简  介


  作为一个在纽约市的非法出租车司机托姆刚开始经营不久,克莱尔雇用他开车送她到加州后见她患病的父亲。


Video
ID                                       : 1
Format                                   : AVC
Format/Info                              : Advanced Video Codec
Format profile                           : High@L4
Format settings, CABAC                   : Yes
Format settings, ReFrames                : 4 frames
Codec ID                                 : V_MPEG4/ISO/AVC
Duration                                 : 1h 36mn
Bit rate mode                            : Variable
Bit rate                                 : 4 931 Kbps
Maximum bit rate                         : 15.0 Mbps
Width                                    : 1 920 pixels
Height                                   : 816 pixels
Display aspect ratio                     : 2.35:1
Frame rate mode                          : Constant
Frame rate                               : 23.976 (24000/1001) fps
Color space                              : YUV
Chroma subsampling                       : 4:2:0
Bit depth                                : 8 bits
Scan type                                : Progressive
Bits/(Pixel*Frame)                       : 0.131
Stream size                              : 3.34 GiB (96%)
Writing library                          : x264 core 148 r2623 d5b2374
Encoding settings                        : cabac=1 / ref=4 / deblock=1:-1:-1 / analyse=0x3:0x133 / me=umh / subme=9 / psy=1 / psy_rd=1.00:0.15 / mixed_ref=1 / me_range=24 / chroma_me=1 / trellis=2 / 8x8dct=1 / cqm=0 / deadzone=21,11 / fast_pskip=1 / chroma_qp_offset=-3 / threads=25 / lookahead_threads=4 / sliced_threads=0 / nr=150 / decimate=1 / interlaced=0 / bluray_compat=0 / constrained_intra=0 / bframes=8 / b_pyramid=2 / b_adapt=2 / b_bias=0 / direct=3 / weightb=1 / open_gop=0 / weightp=2 / keyint=120 / keyint_min=61 / scenecut=0 / intra_refresh=0 / rc_lookahead=120 / rc=crf / mbtree=1 / crf=18.0 / qcomp=0.60 / qpmin=0 / qpmax=69 / qpstep=4 / vbv_maxrate=15000 / vbv_bufsize=31250 / crf_max=0.0 / nal_hrd=vbr / filler=0 / ip_ratio=1.40 / aq=3:1.00
Default                                  : Yes
Forced                                   : No
Color range                              : Limited
Color primaries                          : BT.709
Transfer characteristics                 : BT.709
Matrix coefficients                      : BT.709

Audio
ID                                       : 2
Format                                   : E-AC-3
Format/Info                              : Audio Coding 3
Format settings, Endianness              : Big
Codec ID                                 : A_EAC3
Duration                                 : 1h 36mn
Bit rate mode                            : Constant
Bit rate                                 : 224 Kbps
Channel(s)                               : 2 channels
Channel positions                        : Front: L R
Sampling rate                            : 48.0 KHz
Frame rate                               : 187.500 fps (256 spf)
Compression mode                         : Lossy
Stream size                              : 155 MiB (4%)
Language                                 : English
Default                                  : Yes
Forced                                   : No

Text
ID                                       : 3
Format                                   : UTF-8
Codec ID                                 : S_TEXT/UTF8
Codec ID/Info                            : UTF-8 Plain Text
Duration                                 : 1h 36mn
Bit rate                                 : 58 bps
Count of elements                        : 1268
Stream size                              : 41.4 KiB (0%)
Language                                 : English
Default                                  : No
Forced                                   : No






1 个附件 售价 大小 下载 时间

Take.Me.Home.2011.1080p.WEBRip.DD2.0.x264-monkee[btbtt.co].torrent 0 金币 70.42K 529 次 4月前

#1楼
发帖时间:2017-01-12 19:01:28   |   回复数:4
blue23
超凡入圣№
感谢楼主分享
4月前 #2楼
liyouchai
超凡入圣№
谢谢楼主分享资源
4月前 #3楼
qingfeng401
武林高手
感谢楼主分享
4月前 #4楼
911degrees
一代宗师
非常感谢,谢谢分享
4月前 #5楼
游客组