aoloffline
版主

[2007] [欧美] [纪录] [WEB-1080P] [BT下载]幻世人生 Super.High.Me.2007.1080p.WEBRip.AAC2.0.x264-TrollHD 6.39GB

-->

◎译  名 幻世人生/我嗑药了

◎片  名 Super High Me

◎年  代 2007

◎国  家 美国

◎类  别 纪录片/喜剧

◎语  言 英语

◎上映日期 2008-04-20

◎IMDb评分  6.1/10 from 11,701 users

◎IMDb链接  http://www.imdb.com/title/tt1111833/

◎豆瓣评分 7.2/10 from 102 users

◎豆瓣链接 https://movie.douban.com/subject/3040917/

◎BT之家整理 http://www.btbtt.co 

◎片  长 USA: 89 分钟/USA: 94 分钟

◎导  演 Michael Blieden

◎主  演 Doug Benson

      Alex Campbell

      Graham Elwood


◎简  介


  Determined to find out the true effects of marijuana on the human body, stand-up comedian and former Stoner of the Year Doug Benson documents his experience avoiding pot for 30 days and then consuming massive amounts of the drug for 30 days. More than just an amusing story of one man's quest to get superhigh, this documentary also examines the hotly contested debate over medical marijuana use.


Video
ID                                       : 1
Format                                   : AVC
Format/Info                              : Advanced Video Codec
Format profile                           : High@L4
Format settings, CABAC                   : Yes
Format settings, ReFrames                : 4 frames
Format settings, GOP                     : M=4, N=48
Codec ID                                 : avc1
Codec ID/Info                            : Advanced Video Coding
Duration                                 : 1h 30mn
Bit rate mode                            : Constant
Bit rate                                 : 10 000 Kbps
Width                                    : 1 920 pixels
Height                                   : 1 080 pixels
Display aspect ratio                     : 16:9
Frame rate mode                          : Constant
Frame rate                               : 23.976 (24000/1001) fps
Color space                              : YUV
Chroma subsampling                       : 4:2:0
Bit depth                                : 8 bits
Scan type                                : Progressive
Bits/(Pixel*Frame)                       : 0.201
Stream size                              : 6.31 GiB (99%)
Language                                 : English
Encoded date                             : UTC 2014-08-25 02:14:37
Tagged date                              : UTC 2014-08-25 02:14:37
Color range                              : Limited
Color primaries                          : BT.709
Transfer characteristics                 : BT.709
Matrix coefficients                      : BT.709

Audio
ID                                       : 2
Format                                   : AAC
Format/Info                              : Advanced Audio Codec
Format profile                           : LC
Codec ID                                 : 40
Duration                                 : 1h 30mn
Bit rate mode                            : Variable
Bit rate                                 : 125 Kbps
Maximum bit rate                         : 529 Kbps
Channel(s)                               : 2 channels
Channel positions                        : Front: L R
Sampling rate                            : 48.0 KHz
Frame rate                               : 46.875 fps (1024 spf)
Compression mode                         : Lossy
Stream size                              : 81.0 MiB (1%)
Language                                 : English
Encoded date                             : UTC 2014-08-25 02:14:37
Tagged date                              : UTC 2014-08-25 02:14:37





1 个附件 售价 大小 下载 时间

Super.High.Me.2007.1080p.WEBRip.AAC2.0.x264-TrollHD[btbtt.co].torrent 0 金币 64.53K 417 次 6月前

#1楼
发帖时间:2017-01-12 18:59:22   |   回复数:3
blue23
超凡入圣№
感谢楼主分享
6月前 #2楼
liyouchai
超凡入圣№
谢谢楼主分享资源
6月前 #3楼
911degrees
一代宗师
非常感谢,谢谢分享
6月前 #4楼
游客组