aoloffline
版主

[更 早] [欧美] [犯罪] [WEB-1080P] [BT下载]伪善者/起尾注/合伙人 The.Silent.Partner.1978.1080p.WEBRip.DD2.0.x264-monkee 11GB

-->

◎译  名 伪善者/起尾注/合伙人

◎片  名 The Silent Partner

◎年  代 1978

◎国  家 加拿大

◎类  别 剧情/犯罪/惊悚

◎语  言 英语

◎上映日期 1978-09-07

◎IMDb评分  7.5/10 from 3,316 users

◎IMDb链接  http://www.imdb.com/title/tt0078269/

◎豆瓣评分 7.2/10 from 21 users

◎豆瓣链接 https://movie.douban.com/subject/1301262/

◎BT之家整理 http://www.btbtt.co 

◎片  长 106 分钟

◎导  演 达里尔 杜克 (Daryl Duke)


◎简  介


  This is an imaginative plot| yet one with which the viewer can readily identify. A bank teller is held up at gun point in his bank. Luckily for him he receives aclue that this is going to occur and diverts most of the cash into his own safety deposit box| leaving only a nominal amount for the crook. The ruse works well| butfor the fact that the crook resents the fact that he has been outsmarted. There ensues a terrific battle of wits involving the clever but basically "moral" teller|and the cunning and totally uninhibited bank robber| which involves several other people in ways which cannot be revealed here.



Video
ID                                       : 1
Format                                   : AVC
Format/Info                              : Advanced Video Codec
Format profile                           : High@L4
Format settings, CABAC                   : Yes
Format settings, ReFrames                : 4 frames
Codec ID                                 : V_MPEG4/ISO/AVC
Duration                                 : 1h 45mn
Bit rate mode                            : Variable
Bit rate                                 : 15.0 Mbps
Width                                    : 1 920 pixels
Height                                   : 1 040 pixels
Display aspect ratio                     : 1.85:1
Frame rate mode                          : Constant
Frame rate                               : 23.976 (24000/1001) fps
Color space                              : YUV
Chroma subsampling                       : 4:2:0
Bit depth                                : 8 bits
Scan type                                : Progressive
Bits/(Pixel*Frame)                       : 0.313
Stream size                              : 11.0 GiB (99%)
Title                                    : Silent Partner (197 bB00DD0WTT4B b1080pB
Writing library                          : x264 core 148 r2623 d5b2374
Encoding settings                        : cabac=1 / ref=4 / deblock=1:-1:-1 / analyse=0x3:0x133 / me=umh / subme=9 / psy=1 / psy_rd=1.00:0.15 / mixed_ref=1 / me_range=24 / chroma_me=1 / trellis=2 / 8x8dct=1 / cqm=0 / deadzone=21,11 / fast_pskip=1 / chroma_qp_offset=-3 / threads=32 / lookahead_threads=5 / sliced_threads=0 / nr=150 / decimate=1 / interlaced=0 / bluray_compat=0 / constrained_intra=0 / bframes=8 / b_pyramid=2 / b_adapt=2 / b_bias=0 / direct=3 / weightb=1 / open_gop=0 / weightp=2 / keyint=120 / keyint_min=61 / scenecut=0 / intra_refresh=0 / rc_lookahead=120 / rc=crf / mbtree=1 / crf=18.0 / qcomp=0.60 / qpmin=0 / qpmax=69 / qpstep=4 / vbv_maxrate=15000 / vbv_bufsize=31250 / crf_max=0.0 / nal_hrd=vbr / filler=0 / ip_ratio=1.40 / aq=3:1.00
Default                                  : Yes
Forced                                   : No
Color range                              : Limited
Color primaries                          : BT.709
Transfer characteristics                 : BT.709
Matrix coefficients                      : BT.709

Audio
ID                                       : 2
Format                                   : E-AC-3
Format/Info                              : Audio Coding 3
Format settings, Endianness              : Big
Codec ID                                 : A_EAC3
Duration                                 : 1h 45mn
Bit rate mode                            : Constant
Bit rate                                 : 224 Kbps
Channel(s)                               : 2 channels
Channel positions                        : Front: L R
Sampling rate                            : 48.0 KHz
Frame rate                               : 187.500 fps (256 spf)
Compression mode                         : Lossy
Stream size                              : 169 MiB (1%)
Title                                    : English
Language                                 : English
Default                                  : Yes
Forced                                   : No

Text
ID                                       : 3
Format                                   : UTF-8
Codec ID                                 : S_TEXT/UTF8
Codec ID/Info                            : UTF-8 Plain Text
Duration                                 : 1h 42mn
Bit rate                                 : 49 bps
Count of elements                        : 1290
Stream size                              : 37.1 KiB (0%)
Title                                    : English
Language                                 : English
Default                                  : No
Forced                                   : No





1 个附件 售价 大小 下载 时间

The.Silent.Partner.1978.1080p.WEBRip.DD2.0.x264-monkee[btbtt.co].torrent 0 金币 56.26K 364 次 7天前

#1楼
发帖时间:2017-01-12 18:57:26   |   回复数:3
blue23
超凡入圣№
感谢楼主分享
7天前 #2楼
liyouchai
一代宗师
谢谢楼主分享资源
7天前 #3楼
911degrees
一代宗师
非常感谢,谢谢分享
7天前 #4楼
游客组