aoloffline
版主

[2012] [欧美] [动画] [WEB-1080P] [BT下载]女巫的扫帚/扫帚上的家 Room.on.the.Broom.2012.1080p.WEBRip.AAC2.0.x264-TrollHD 1.8GB

-->

◎译  名 女巫的扫帚/扫帚上的家/女巫扫帚排排坐

◎片  名 Room on the Broom

◎年  代 2012

◎国  家 英国

◎类  别 喜剧/动画/奇幻/短片

◎语  言 英语

◎上映日期 2012-12-25(英国)

◎IMDb评分  7.5/10 from 2,023 users

◎IMDb链接  http://www.imdb.com/title/tt2484120/

◎豆瓣评分 8.1/10 from 3,247 users

◎豆瓣链接 https://movie.douban.com/subject/20471819/

◎BT之家整理 http://www.btbtt.co 

◎片  长 25分钟

◎导  演 Jan Lachauer / 马克思·朗 Max Lang

◎主  演 吉莲·安德森 Gillian Anderson

      西蒙·佩吉 Simon Pegg

      罗伯·布莱顿 Rob Brydon

      马丁·克鲁勒斯 Martin Clunes

      莎莉·霍金斯 Sally Hawkins

      大卫·威廉姆斯 David Walliams

      蒂莫西·斯波 Timothy Spall


◎简  介


  广袤的大森林里,住着一个高挑消瘦而又和善可亲的女巫。当清晨的第一缕阳光照了进来,女巫便准时醒来,和她那只虎皮小猫一起忙碌熬制各种草药,当然一不小心便会引起爆炸。这时候真多亏了可靠的小猫帮忙,在不至于让女巫炸伤。接下来,女巫和小猫带着各自的家当,坐上扫帚开始旅行。空中的旅行愉快惬意,不过难免出现状况,路上女巫先后丢了帽子、蝴蝶结和魔法棒,而偶然遇到的小狗、小鸟和青蛙都适时为女巫解决了难题。这些小家伙只有一个愿望,能坐着扫帚和女巫一起旅行。小猫不喜欢接纳外来者,而且扫帚也根本承受不了太大的重量,可是好心的女巫每次都答应小动物们的请求。

  旅途仍在继续,与此同时可怕的红龙从睡眠中醒来……


◎获奖情况


  第86届奥斯卡金像奖  (2014)

  最佳动画短片(提名) Jan Lachauer / 马克思·朗


  第19届上海电视节  (2013)

  动画片 最佳动画片(提名)


  第4届豆瓣电影鑫像奖  (2014)

  鑫豆单元 最佳短片(提名)



Video
ID                                       : 1
Format                                   : AVC
Format/Info                              : Advanced Video Codec
Format profile                           : High@L4
Format settings, CABAC                   : Yes
Format settings, ReFrames                : 4 frames
Codec ID                                 : avc1
Codec ID/Info                            : Advanced Video Coding
Duration                                 : 26mn 44s
Bit rate mode                            : Constant
Bit rate                                 : 10 000 Kbps
Width                                    : 1 920 pixels
Height                                   : 1 080 pixels
Display aspect ratio                     : 16:9
Frame rate mode                          : Constant
Frame rate                               : 23.976 (24000/1001) fps
Color space                              : YUV
Chroma subsampling                       : 4:2:0
Bit depth                                : 8 bits
Scan type                                : Progressive
Bits/(Pixel*Frame)                       : 0.201
Stream size                              : 1.87 GiB (99%)
Language                                 : English
Encoded date                             : UTC 2014-12-23 04:30:53
Tagged date                              : UTC 2014-12-23 04:30:53
Color range                              : Limited
Color primaries                          : BT.709
Transfer characteristics                 : BT.709
Matrix coefficients                      : BT.709

Audio
ID                                       : 2
Format                                   : AAC
Format/Info                              : Advanced Audio Codec
Format profile                           : LC
Codec ID                                 : 40
Duration                                 : 26mn 44s
Bit rate mode                            : Variable
Bit rate                                 : 125 Kbps
Maximum bit rate                         : 153 Kbps
Channel(s)                               : 2 channels
Channel positions                        : Front: L R
Sampling rate                            : 48.0 KHz
Frame rate                               : 46.875 fps (1024 spf)
Compression mode                         : Lossy
Stream size                              : 24.0 MiB (1%)
Language                                 : English
Encoded date                             : UTC 2014-12-23 04:30:53
Tagged date                              : UTC 2014-12-23 04:30:53



1 个附件 售价 大小 下载 时间

Room.on.the.Broom.2012.1080p.WEBRip.AAC2.0.x264-TrollHD[btbtt.co].torrent 0 金币 38.47K 1110 次 7月前

#1楼
发帖时间:2017-01-12 18:47:10   |   回复数:3
blue23
超凡入圣№
感谢楼主分享
7月前 #2楼
liyouchai
超凡入圣№
谢谢楼主分享资源
7月前 #3楼
911degrees
一代宗师
非常感谢,谢谢分享
7月前 #4楼
游客组