aoloffline
版主

[更 早] [欧美] [动画] [WEB-1080P] [BT下载]小猪大行动/小猪大电影 Piglets.Big.Movie.2003.1080p.WEBRip.AAC2.0.x264-TrollHD 5.3GB

-->

◎译  名 小猪大行动/小猪大电影/小猪历险记

◎片  名 Piglet's Big Movie

◎年  代 2003

◎国  家 美国

◎类  别 动画/冒险

◎语  言 英语

◎上映日期 2003-03-21

◎IMDb评分  6.0/10 from 4,894 users

◎IMDb链接  http://www.imdb.com/title/tt0323642/

◎豆瓣评分 8.2/10 from 487 users

◎豆瓣链接 https://movie.douban.com/subject/1307003/

◎BT之家整理 http://www.btbtt.co 

◎片  长 75 分钟

◎导  演 Francis Glebas


◎简  介


  本片是《小熊维尼》系列动画影片第三部,主人公换成了小猪皮克利,讲的是一个找回信心的故事。小熊维尼最要好的朋友——小猪皮克利,因为体型太小而自卑,再加上自己又不能为大家做点事情,感到非常沮丧,最后在森林中迷路了。因此,小熊维尼赶紧率领跳跳虎、屹耳展开一场寻找小猪的森林大冒险。而小猪最后也找回自信,相信小个子依然可以成为英雄。


◎获奖情况


  第31届动画安妮奖  (2004)

  最佳动画效果(提名) Madoka Yasue / Madoka Yasue



Video
ID                                       : 1
Format                                   : AVC
Format/Info                              : Advanced Video Codec
Format profile                           : High@L4
Format settings, CABAC                   : Yes
Format settings, ReFrames                : 4 frames
Format settings, GOP                     : M=4, N=48
Codec ID                                 : avc1
Codec ID/Info                            : Advanced Video Coding
Duration                                 : 1h 14mn
Source duration                          : 1h 14mn
Bit rate mode                            : Constant
Bit rate                                 : 10 000 Kbps
Width                                    : 1 920 pixels
Height                                   : 1 080 pixels
Display aspect ratio                     : 16:9
Frame rate mode                          : Constant
Frame rate                               : 23.976 (24000/1001) fps
Color space                              : YUV
Chroma subsampling                       : 4:2:0
Bit depth                                : 8 bits
Scan type                                : Progressive
Bits/(Pixel*Frame)                       : 0.201
Stream size                              : 5.23 GiB (99%)
Source stream size                       : 5.23 GiB (99%)
Language                                 : English
Encoded date                             : UTC 2015-03-25 00:49:11
Tagged date                              : UTC 2015-03-25 00:49:11
Color range                              : Limited
Color primaries                          : BT.709
Transfer characteristics                 : BT.709
Matrix coefficients                      : BT.709

Audio
ID                                       : 2
Format                                   : AAC
Format/Info                              : Advanced Audio Codec
Format profile                           : LC
Codec ID                                 : 40
Duration                                 : 1h 14mn
Bit rate mode                            : Variable
Bit rate                                 : 125 Kbps
Maximum bit rate                         : 333 Kbps
Channel(s)                               : 2 channels
Channel positions                        : Front: L R
Sampling rate                            : 48.0 KHz
Frame rate                               : 46.875 fps (1024 spf)
Compression mode                         : Lossy
Stream size                              : 67.2 MiB (1%)
Language                                 : English
Encoded date                             : UTC 2015-03-25 00:49:11
Tagged date                              : UTC 2015-03-25 00:49:11





1 个附件 售价 大小 下载 时间

Piglets.Big.Movie.2003.1080p.WEBRip.AAC2.0.x264-TrollHD[btbtt.co].torrent 0 金币 53.58K 785 次 2月前

#1楼
发帖时间:2017-01-12 18:45:36   |   回复数:4
blue23
超凡入圣№
感谢楼主分享
2月前 #2楼
liyouchai
超凡入圣№
谢谢楼主分享资源
2月前 #3楼
qingfeng401
武林高手
感谢楼主分享
2月前 #4楼
911degrees
一代宗师
非常感谢,谢谢分享
2月前 #5楼
游客组