aoloffline
版主

[2013] [欧美] [纪录] [WEB-1080P] [BT下载]C小姐/巴黎時尚女魔頭 Mademoiselle.C.2013.1080p.WEBRip.AAC2.0.x264-TrollHD 6.5GB

-->

◎译  名 C小姐/巴黎時尚女魔頭(台)

◎片  名 Mademoiselle C

◎年  代 2013

◎国  家 法国

◎类  别 纪录片

◎语  言 法语

◎上映日期 2013-09-11(美国)

◎IMDb评分  5.7/10 from 433 users

◎IMDb链接  http://www.imdb.com/title/tt2506388/

◎豆瓣评分 7.2/10 from 104 users

◎豆瓣链接 https://movie.douban.com/subject/20562552/

◎BT之家整理 http://www.btbtt.co 

◎片  长 93分钟

◎导  演 Fabien Constant

◎主  演 汤姆·福特 Tom Ford

      多纳泰拉·范思哲 Donatella Versace

      卡尔·拉格菲尔德 Karl Lagerfeld

      Carine Roitfeld


◎简  介


  本片记录了法国版VOGUE前任”女魔头“卡琳·洛菲德在辞去主编职务后,创办自己的时尚杂志CR Fashion Book的经历。本片还涉及她的职业历程以及个人生活,涵括洛菲德圈中好友汤姆·福特,多娜泰拉·范思哲等著名设计师的采访。


Video
ID                                       : 1
Format                                   : AVC
Format/Info                              : Advanced Video Codec
Format profile                           : High@L4
Format settings, CABAC                   : Yes
Format settings, ReFrames                : 4 frames
Codec ID                                 : avc1
Codec ID/Info                            : Advanced Video Coding
Duration                                 : 1h 33mn
Bit rate mode                            : Constant
Bit rate                                 : 10 000 Kbps
Width                                    : 1 920 pixels
Height                                   : 1 080 pixels
Display aspect ratio                     : 16:9
Frame rate mode                          : Constant
Frame rate                               : 24.000 fps
Color space                              : YUV
Chroma subsampling                       : 4:2:0
Bit depth                                : 8 bits
Scan type                                : Progressive
Bits/(Pixel*Frame)                       : 0.201
Stream size                              : 6.50 GiB (99%)
Language                                 : English
Encoded date                             : UTC 2015-04-10 18:24:04
Tagged date                              : UTC 2015-04-10 18:24:04
Color range                              : Limited
Color primaries                          : BT.709
Transfer characteristics                 : BT.709
Matrix coefficients                      : BT.709

Audio
ID                                       : 2
Format                                   : AAC
Format/Info                              : Advanced Audio Codec
Format profile                           : LC
Codec ID                                 : 40
Duration                                 : 1h 33mn
Bit rate mode                            : Variable
Bit rate                                 : 125 Kbps
Maximum bit rate                         : 261 Kbps
Channel(s)                               : 2 channels
Channel positions                        : Front: L R
Sampling rate                            : 48.0 KHz
Frame rate                               : 46.875 fps (1024 spf)
Compression mode                         : Lossy
Stream size                              : 83.4 MiB (1%)
Language                                 : English
Encoded date                             : UTC 2015-04-10 18:24:04
Tagged date                              : UTC 2015-04-10 18:24:04





1 个附件 售价 大小 下载 时间

Mademoiselle.C.2013.1080p.WEBRip.AAC2.0.x264-TrollHD[btbtt.co].torrent 0 金币 66.43K 1619 次 6月前

#1楼
发帖时间:2017-01-12 18:43:40   |   回复数:3
blue23
超凡入圣№
感谢楼主分享
6月前 #2楼
liyouchai
超凡入圣№
谢谢楼主分享资源
6月前 #3楼
911degrees
一代宗师
非常感谢,谢谢分享
6月前 #4楼
游客组