aoloffline
版主

[更 早] [欧美] [喜剧] [WEB-1080P] [BT下载]保密天使/小秘密 Little.Secrets.2001.1080p.WEBRip.AAC2.0.x264-TrollHD 6.8GB

-->

◎译  名 保密天使/小秘密

◎片  名 Little Secrets

◎年  代 2001

◎国  家 美国

◎类  别 喜剧/剧情/家庭/音乐

◎语  言 英语

◎上映日期 2001-10-17(美国温馨电影节)

◎IMDb评分  6.5/10 from 2,729 users

◎IMDb链接  http://www.imdb.com/title/tt0296845/

◎豆瓣评分 7.8/10 from 206 users

◎豆瓣链接 https://movie.douban.com/subject/1469971/

◎BT之家整理 http://www.btbtt.co 

◎片  长 96 分钟/Japan: 97 分钟

◎导  演 布莱尔·特雷乌 Blair Treu

◎主  演 埃文·蕾切尔·伍德 Evan Rachel Wood

      迈克尔·安格拉诺 Michael Angarano

      大卫·加拉赫 David Gallagher


◎简  介


  漂亮女孩艾米丽从小失去父母,被卡罗琳和埃迪收养。她一直把自己的身世当成一个秘密,从未对朋友们说过。她的小伙伴乾了许多坏事,都告诉了艾米丽,并要求她保守秘密,于是艾米丽成了一个守密者。这么多秘密给艾米丽带来了很多烦恼。在她的小提琴老师波琳的开导下,艾米丽勇敢地向伙伴们说出了自己的身世,并说出了小伙伴们所有的秘密,帮他们改正了错误.


Video
ID                                       : 1
Format                                   : AVC
Format/Info                              : Advanced Video Codec
Format profile                           : High@L4
Format settings, CABAC                   : Yes
Format settings, ReFrames                : 4 frames
Format settings, GOP                     : M=4, N=48
Codec ID                                 : avc1
Codec ID/Info                            : Advanced Video Coding
Duration                                 : 1h 36mn
Source duration                          : 1h 36mn
Bit rate mode                            : Constant
Bit rate                                 : 10 000 Kbps
Width                                    : 1 920 pixels
Height                                   : 1 080 pixels
Display aspect ratio                     : 16:9
Frame rate mode                          : Constant
Frame rate                               : 23.976 (24000/1001) fps
Color space                              : YUV
Chroma subsampling                       : 4:2:0
Bit depth                                : 8 bits
Scan type                                : Progressive
Bits/(Pixel*Frame)                       : 0.201
Stream size                              : 6.75 GiB (99%)
Source stream size                       : 6.75 GiB (99%)
Language                                 : English
Encoded date                             : UTC 2014-08-26 00:57:13
Tagged date                              : UTC 2014-08-26 00:57:13
Color range                              : Limited
Color primaries                          : BT.709
Transfer characteristics                 : BT.709
Matrix coefficients                      : BT.709

Audio
ID                                       : 2
Format                                   : AAC
Format/Info                              : Advanced Audio Codec
Format profile                           : LC
Codec ID                                 : 40
Duration                                 : 1h 36mn
Bit rate mode                            : Variable
Bit rate                                 : 125 Kbps
Maximum bit rate                         : 454 Kbps
Channel(s)                               : 2 channels
Channel positions                        : Front: L R
Sampling rate                            : 48.0 KHz
Frame rate                               : 46.875 fps (1024 spf)
Compression mode                         : Lossy
Stream size                              : 86.7 MiB (1%)
Language                                 : English
Encoded date                             : UTC 2014-08-26 00:57:13
Tagged date                              : UTC 2014-08-26 00:57:13





1 个附件 售价 大小 下载 时间

Little.Secrets.2001.1080p.WEBRip.AAC2.0.x264-TrollHD[btbtt.co].torrent 0 金币 69.02K 445 次 3月前

#1楼
发帖时间:2017-01-12 18:41:46   |   回复数:3
blue23
超凡入圣№
感谢楼主分享
3月前 #2楼
liyouchai
超凡入圣№
谢谢楼主分享资源
3月前 #3楼
911degrees
一代宗师
非常感谢,谢谢分享
3月前 #4楼
游客组