aoloffline
版主

[2013] [欧美] [动画] [WEB-1080P] [BT下载]Lego.Marvel.Superheroes.2013.1080p.WEBRip.AAC2.0.x264-TrollHD 1.56GB

-->


http://imdb.com/title/tt2620204/


Whilst visiting Earth to herald the arrival of Galactus the Silver Surfer is attacked by Dr Doom| causing his surfboard to be destroyed| scattering pieces all over
the world. Desperate to harness this great power Dr Doom assembles a team of villains to collect these pieces. Nick Fury unites the greatest heroes the Marvel
universe has to offer to put a stop to Doom's nefarious scheme.



Video
ID                                       : 1
Format                                   : AVC
Format/Info                              : Advanced Video Codec
Format profile                           : High@L4
Format settings, CABAC                   : Yes
Format settings, ReFrames                : 4 frames
Format settings, GOP                     : M=4, N=48
Codec ID                                 : avc1
Codec ID/Info                            : Advanced Video Coding
Duration                                 : 22mn 2s
Source duration                          : 22mn 2s
Bit rate mode                            : Constant
Bit rate                                 : 10 000 Kbps
Width                                    : 1 920 pixels
Height                                   : 1 080 pixels
Display aspect ratio                     : 16:9
Frame rate mode                          : Constant
Frame rate                               : 23.976 (24000/1001) fps
Color space                              : YUV
Chroma subsampling                       : 4:2:0
Bit depth                                : 8 bits
Scan type                                : Progressive
Bits/(Pixel*Frame)                       : 0.201
Stream size                              : 1.54 GiB (99%)
Source stream size                       : 1.54 GiB (99%)
Language                                 : English
Encoded date                             : UTC 2014-09-16 00:46:43
Tagged date                              : UTC 2014-09-16 00:46:43
Color range                              : Limited
Color primaries                          : BT.709
Transfer characteristics                 : BT.709
Matrix coefficients                      : BT.709

Audio
ID                                       : 2
Format                                   : AAC
Format/Info                              : Advanced Audio Codec
Format profile                           : LC
Codec ID                                 : 40
Duration                                 : 22mn 2s
Bit rate mode                            : Variable
Bit rate                                 : 125 Kbps
Maximum bit rate                         : 222 Kbps
Channel(s)                               : 2 channels
Channel positions                        : Front: L R
Sampling rate                            : 48.0 KHz
Frame rate                               : 46.875 fps (1024 spf)
Compression mode                         : Lossy
Stream size                              : 19.8 MiB (1%)
Language                                 : English
Encoded date                             : UTC 2014-09-16 00:46:43
Tagged date                              : UTC 2014-09-16 00:46:43



1 个附件 售价 大小 下载 时间

Lego.Marvel.Superheroes.2013.1080p.WEBRip.AAC2.0.x264-TrollHD[btbtt.co].torrent 0 金币 31.81K 1096 次 6月前

#1楼
发帖时间:2017-01-12 18:39:55   |   回复数:3
blue23
超凡入圣№
感谢楼主分享
6月前 #2楼
liyouchai
超凡入圣№
谢谢楼主分享资源
6月前 #3楼
911degrees
一代宗师
非常感谢,谢谢分享
6月前 #4楼
游客组