aoloffline
版主

[2010] [欧美] [动画] [WEB-1080P] [BT下载]Lego.Hero.Factory.Rise.Of.2010.1080p.WEBRip.AAC2.0.x264-TrollHD 6GB

-->


暂无中文简介


http://imdb.com/title/tt2114058/



Video
ID                                       : 1
Format                                   : AVC
Format/Info                              : Advanced Video Codec
Format profile                           : High@L4
Format settings, CABAC                   : Yes
Format settings, ReFrames                : 4 frames
Codec ID                                 : avc1
Codec ID/Info                            : Advanced Video Coding
Duration                                 : 1h 26mn
Source duration                          : 1h 26mn
Bit rate mode                            : Constant
Bit rate                                 : 10 000 Kbps
Width                                    : 1 920 pixels
Height                                   : 1 080 pixels
Display aspect ratio                     : 16:9
Frame rate mode                          : Constant
Frame rate                               : 23.976 (24000/1001) fps
Color space                              : YUV
Chroma subsampling                       : 4:2:0
Bit depth                                : 8 bits
Scan type                                : Progressive
Bits/(Pixel*Frame)                       : 0.201
Stream size                              : 6.05 GiB (99%)
Source stream size                       : 6.05 GiB (99%)
Language                                 : English
Encoded date                             : UTC 2014-02-13 22:46:58
Tagged date                              : UTC 2014-02-13 22:46:58
Color range                              : Limited
Color primaries                          : BT.709
Transfer characteristics                 : BT.709
Matrix coefficients                      : BT.709

Audio
ID                                       : 2
Format                                   : AAC
Format/Info                              : Advanced Audio Codec
Format profile                           : LC
Codec ID                                 : 40
Duration                                 : 1h 26mn
Bit rate mode                            : Variable
Bit rate                                 : 125 Kbps
Maximum bit rate                         : 410 Kbps
Channel(s)                               : 2 channels
Channel positions                        : Front: L R
Sampling rate                            : 48.0 KHz
Frame rate                               : 46.875 fps (1024 spf)
Compression mode                         : Lossy
Stream size                              : 77.7 MiB (1%)
Language                                 : English
Encoded date                             : UTC 2014-02-13 22:46:58
Tagged date                              : UTC 2014-02-13 22:46:58





1 个附件 售价 大小 下载 时间

Lego.Hero.Factory.Rise.Of.The.Rookies.2010.1080p.WEBRip.AAC2.0.x264-TrollHD[btbtt.co].torrent 0 金币 61.98K 669 次 2月前

#1楼
发帖时间:2017-01-12 18:37:14   |   回复数:3
blue23
超凡入圣№
感谢楼主分享
2月前 #2楼
liyouchai
超凡入圣№
谢谢楼主分享资源
2月前 #3楼
911degrees
一代宗师
非常感谢,谢谢分享
2月前 #4楼
游客组