aoloffline
版主

[2010] [欧美] [动画] [WEB-1080P] [BT下载]乐高亚特兰蒂斯 Lego.Atlantis.2010.1080p.WEBRip.AAC2.0.x264-TrollHD 1.57GB

-->

◎译  名 乐高亚特兰蒂斯

◎片  名 Lego Atlantis

◎年  代 2010

◎国  家 美国

◎类  别 动画

◎语  言 英语

◎上映日期 2010-01-15

◎IMDb评分  6.3/10 from 83 users

◎IMDb链接  http://www.imdb.com/title/tt1640145/

◎BT之家整理 http://www.btbtt.co 

◎导  演 Mark Baldo


◎简  介


  She briefs the crew on the real reason behind the mission| but before they can voice their displeasure at the farfetched story of Atlantis| the submarine comes underattack by a Giant Crab| the likes of which has never been seen before. But things are about to go from strange to outright bizarre| as the crew finds itself beingplummeted to the bottom of an underwater volcano| besieged by a host of mutant sea life| and mentally tested to uncover the secret of the mysterious Glowing Crystalsthey uncover along the way. It's going to take all their strength| willpower| and brainpower to overcome the unknown elements of the ocean's depths| but if they cansurvive| they just might discover the greatest treasure the world has ever known... The Lost City of Atlantis.



Video
ID                                       : 1
Format                                   : AVC
Format/Info                              : Advanced Video Codec
Format profile                           : High@L4
Format settings, CABAC                   : Yes
Format settings, ReFrames                : 4 frames
Codec ID                                 : avc1
Codec ID/Info                            : Advanced Video Coding
Duration                                 : 22mn 13s
Bit rate mode                            : Constant
Bit rate                                 : 10 000 Kbps
Width                                    : 1 920 pixels
Height                                   : 1 080 pixels
Display aspect ratio                     : 16:9
Frame rate mode                          : Constant
Frame rate                               : 24.000 fps
Color space                              : YUV
Chroma subsampling                       : 4:2:0
Bit depth                                : 8 bits
Scan type                                : Progressive
Bits/(Pixel*Frame)                       : 0.201
Stream size                              : 1.55 GiB (99%)
Language                                 : English
Encoded date                             : UTC 2014-09-15 23:51:45
Tagged date                              : UTC 2014-09-15 23:51:45
Color range                              : Limited
Color primaries                          : BT.709
Transfer characteristics                 : BT.709
Matrix coefficients                      : BT.709

Audio
ID                                       : 2
Format                                   : AAC
Format/Info                              : Advanced Audio Codec
Format profile                           : LC
Codec ID                                 : 40
Duration                                 : 22mn 13s
Bit rate mode                            : Variable
Bit rate                                 : 125 Kbps
Maximum bit rate                         : 321 Kbps
Channel(s)                               : 2 channels
Channel positions                        : Front: L R
Sampling rate                            : 48.0 KHz
Frame rate                               : 46.875 fps (1024 spf)
Compression mode                         : Lossy
Stream size                              : 19.9 MiB (1%)
Language                                 : English
Encoded date                             : UTC 2014-09-15 23:51:45
Tagged date                              : UTC 2014-09-15 23:51:45



1 个附件 售价 大小 下载 时间

Lego.Atlantis.2010.1080p.WEBRip.AAC2.0.x264-TrollHD[btbtt.co].torrent 0 金币 32.05K 735 次 7天前

#1楼
发帖时间:2017-01-12 18:35:25   |   回复数:3
blue23
超凡入圣№
感谢楼主分享
7天前 #2楼
liyouchai
一代宗师
谢谢楼主分享资源
7天前 #3楼
911degrees
一代宗师
非常感谢,谢谢分享
7天前 #4楼
游客组