aoloffline
版主

[2016] [欧美] [纪录] [WEB-1080P] [BT下载]鸡人 Chicken.People.2016.1080p.WEBRip.DD5.1.x264-monkee 6.72GB

-->

◎译  名 鸡人

◎片  名 Chicken People

◎年  代 2016

◎国  家 美国

◎类  别 喜剧/纪录片/家庭

◎语  言 英语

◎上映日期 2016-03-13(西南偏南电影节)/2016-09-23(美国)

◎IMDb评分  7.2/10 from 222 users

◎IMDb链接  http://www.imdb.com/title/tt4819510/

◎豆瓣评分 7.7/10 from 20 users

◎豆瓣链接 https://movie.douban.com/subject/26669516/

◎BT之家整理 http://www.btbtt.co 

◎片  长 83分钟

◎导  演 Nicole Lucas Haimes


◎简  介


  Chicken People is a funny and uplifting look at the world of show chickens and the people who love them. Starting at the largest national poultry competition, likened to the Westminster Dog Show for chickens, Chicken People follows three top competitors over the course of a year as they grapple with life's challenges while vying to win the next year's crown. Both humorous and heartfelt, Chicken People is an unforgettable celebration of the human spirit.



Video
ID                                       : 1
Format                                   : AVC
Format/Info                              : Advanced Video Codec
Format profile                           : High@L4
Format settings, CABAC                   : Yes
Format settings, ReFrames                : 4 frames
Codec ID                                 : V_MPEG4/ISO/AVC
Duration                                 : 1h 22mn
Bit rate mode                            : Variable
Bit rate                                 : 11.0 Mbps
Maximum bit rate                         : 15.0 Mbps
Width                                    : 1 920 pixels
Height                                   : 1 080 pixels
Display aspect ratio                     : 16:9
Frame rate mode                          : Constant
Frame rate                               : 23.976 (24000/1001) fps
Color space                              : YUV
Chroma subsampling                       : 4:2:0
Bit depth                                : 8 bits
Scan type                                : Progressive
Bits/(Pixel*Frame)                       : 0.221
Stream size                              : 6.35 GiB (94%)
Writing library                          : x264 core 148 r2623 d5b2374
Encoding settings                        : cabac=1 / ref=4 / deblock=1:-1:-1 / analyse=0x3:0x133 / me=umh / subme=9 / psy=1 / psy_rd=1.00:0.15 / mixed_ref=1 / me_range=24 / chroma_me=1 / trellis=2 / 8x8dct=1 / cqm=0 / deadzone=21,11 / fast_pskip=1 / chroma_qp_offset=-3 / threads=34 / lookahead_threads=5 / sliced_threads=0 / nr=150 / decimate=1 / interlaced=0 / bluray_compat=0 / constrained_intra=0 / bframes=8 / b_pyramid=2 / b_adapt=2 / b_bias=0 / direct=3 / weightb=1 / open_gop=0 / weightp=2 / keyint=120 / keyint_min=61 / scenecut=0 / intra_refresh=0 / rc_lookahead=120 / rc=crf / mbtree=1 / crf=18.0 / qcomp=0.60 / qpmin=0 / qpmax=69 / qpstep=4 / vbv_maxrate=15000 / vbv_bufsize=31250 / crf_max=0.0 / nal_hrd=vbr / filler=0 / ip_ratio=1.40 / aq=3:1.00
Default                                  : Yes
Forced                                   : No
Color range                              : Limited
Color primaries                          : BT.709
Transfer characteristics                 : BT.709
Matrix coefficients                      : BT.709

Audio
ID                                       : 3
Format                                   : E-AC-3
Format/Info                              : Audio Coding 3
Format settings, Endianness              : Big
Codec ID                                 : A_EAC3
Duration                                 : 1h 22mn
Bit rate mode                            : Constant
Bit rate                                 : 640 Kbps
Channel(s)                               : 6 channels
Channel positions                        : Front: L C R, Side: L R, LFE
Sampling rate                            : 48.0 KHz
Frame rate                               : 187.500 fps (256 spf)
Compression mode                         : Lossy
Stream size                              : 379 MiB (6%)
Language                                 : English
Default                                  : Yes
Forced                                   : No

Text
ID                                       : 2
Format                                   : UTF-8
Codec ID                                 : S_TEXT/UTF8
Codec ID/Info                            : UTF-8 Plain Text
Duration                                 : 1h 19mn
Bit rate                                 : 88 bps
Count of elements                        : 1638
Stream size                              : 51.3 KiB (0%)
Language                                 : English
Default                                  : No
Forced                                   : No






1 个附件 售价 大小 下载 时间

Chicken.People.2016.1080p.WEBRip.DD5.1.x264-monkee[btbtt.co].torrent 0 金币 67.81K 277 次 7天前

#1楼
发帖时间:2017-01-12 17:57:48   |   回复数:3
blue23
超凡入圣№
感谢楼主分享
7天前 #2楼
liyouchai
一代宗师
谢谢楼主分享资源
7天前 #3楼
911degrees
一代宗师
非常感谢,谢谢分享
7天前 #4楼
游客组