aoloffline
版主

[更 早] [欧美] [喜剧] [WEB-1080P] [BT下载]灵犬宾果/神犬走天涯 Bingo.1991.1080p.WEBRip.AAC2.0.x264-TrollHD 6.1GB

-->

◎译  名 灵犬宾果/神犬走天涯/宾果历险记/小犬当家

◎片  名 Bingo

◎年  代 1991

◎国  家 美国

◎类  别 冒险/喜剧/家庭

◎语  言 英语

◎上映日期 1991-08-09

◎IMDb评分  4.7/10 from 2,295 users

◎IMDb链接  http://www.imdb.com/title/tt0101455/

◎豆瓣评分 8.6/10 from 165 users

◎豆瓣链接 https://movie.douban.com/subject/1299656/

◎BT之家整理 http://www.btbtt.co 

◎片  长 Germany: 90 分钟/Spain: 87 分钟/USA: 89 分钟

◎导  演 马修 罗宾斯 (Matthew Robbins (I))

◎主  演 Robert J. Steinmiller Jr.

      大卫·拉斯彻 David Rasche

      辛迪·威廉姆斯 Cindy Williams


◎简  介


  宾果(Bingo)是一条其貌不扬的狗,自从它勇救落水男孩查克(Robert J. Steinmiller Jr.饰),就和辛迪成为了要好的朋友。可是,辛迪的家人并不能容纳它,在举家搬迁时把它留在了旧屋。宾果一心要找回它忠诚守护的小主人,于是上演了一个千里寻人的故事。

  宾果的路上充满了坎坷的困难,同时充满了新鲜的挑战。它救出被抢劫的一家,被误投进监狱,而后开始了宾果版的“越狱”大戏,终于回到查克身边,却发现查克似乎已经把它忘记。宾果和主人的感情,看来还要经受一次劫难的洗礼才能得到明证。



Video
ID                                       : 1
Format                                   : AVC
Format/Info                              : Advanced Video Codec
Format profile                           : High@L4
Format settings, CABAC                   : Yes
Format settings, ReFrames                : 4 frames
Format settings, GOP                     : M=4, N=50
Codec ID                                 : avc1
Codec ID/Info                            : Advanced Video Coding
Duration                                 : 1h 26mn
Bit rate mode                            : Constant
Bit rate                                 : 10 000 Kbps
Width                                    : 1 920 pixels
Height                                   : 1 080 pixels
Display aspect ratio                     : 16:9
Frame rate mode                          : Constant
Frame rate                               : 25.000 fps
Standard                                 : PAL
Color space                              : YUV
Chroma subsampling                       : 4:2:0
Bit depth                                : 8 bits
Scan type                                : Progressive
Bits/(Pixel*Frame)                       : 0.193
Stream size                              : 6.02 GiB (99%)
Language                                 : English
Encoded date                             : UTC 2013-12-23 17:42:49
Tagged date                              : UTC 2013-12-23 17:42:49
Color range                              : Limited
Color primaries                          : BT.709
Transfer characteristics                 : BT.709
Matrix coefficients                      : BT.709

Audio
ID                                       : 2
Format                                   : AAC
Format/Info                              : Advanced Audio Codec
Format profile                           : LC
Codec ID                                 : 40
Duration                                 : 1h 26mn
Bit rate mode                            : Variable
Bit rate                                 : 125 Kbps
Maximum bit rate                         : 153 Kbps
Channel(s)                               : 2 channels
Channel positions                        : Front: L R
Sampling rate                            : 48.0 KHz
Frame rate                               : 46.875 fps (1024 spf)
Compression mode                         : Lossy
Stream size                              : 77.3 MiB (1%)
Language                                 : English
Encoded date                             : UTC 2013-12-23 17:42:49
Tagged date                              : UTC 2013-12-23 17:42:49






1 个附件 售价 大小 下载 时间

Bingo.1991.1080p.WEBRip.AAC2.0.x264-TrollHD[btbtt.co].torrent 0 金币 61.56K 532 次 7天前

#1楼
发帖时间:2017-01-12 17:54:34   |   回复数:3
blue23
超凡入圣№
感谢楼主分享
7天前 #2楼
liyouchai
一代宗师
谢谢楼主分享资源
7天前 #3楼
911degrees
一代宗师
非常感谢,谢谢分享
7天前 #4楼
游客组