小Q呆
版主

[2016] [欧美] [纪录] [BD-1080P] [BT下载]居民们/法国人 Les.Habitants.2016.FRENCH.1080p.BluRay.x264-FiDELiO 8.8GB

-->

◎译  名 居民们/法国人(港)

◎片  名 Les habitants

◎年  代 2016

◎国  家 法国

◎类  别 纪录片

◎语  言 法语

◎上映日期 2016-04-27(法国)

◎IMDb评分  6.4/10 from 54 users

◎IMDb链接  http://www.imdb.com/title/tt4857622/

◎BT之家整理 http://www.btbtt.co

◎片  长 84分钟

◎导  演 雷蒙·德帕东 Raymond Depardon


◎简  介


  Documentarist Raymond Depardon travels around France and gathers conversations with very different people.



Complete name : les.habitants.2016.french.1080p.bluray.x264-fidelio.mkv
Format : Matroska
Format version : Version 4 / Version 2
File size : 8.75 GiB
Duration : 1 h 23 min
Overall bit rate : 14.9 Mb/s
Encoded date : UTC 2010-02-22 21:41:29
Writing application : no_variable_data
Writing library : no_variable_data / Lavf57.47.101

Video
ID : 1
Format : AVC
Format/Info : Advanced Video Codec
Format profile : High@L4.1
Format settings, CABAC : Yes
Format settings, ReFrames : 5 frames
Codec ID : V_MPEG4/ISO/AVC
Duration : 1 h 23 min
Bit rate : 13.4 Mb/s
Width : 1 920 pixels
Height : 808 pixels
Display aspect ratio : 2.40:1
Frame rate mode : Constant
Frame rate : 24.000 FPS
Color space : YUV
Chroma subsampling : 4:2:0
Bit depth : 8 bits
Scan type : Progressive
Bits/(Pixel*Frame) : 0.361
Stream size : 7.69 GiB (88%)
Writing library : x264 core 148 r2744 b97ae06
Encoding settings : cabac=1 / ref=5 / deblock=1:0:0 / analyse=0x3:0x133 / me=umh / subme=10 / psy=1 / psy_rd=1.00:0.00 / mixed_ref=1 / me_range=24 / chroma_me=1 / trellis=2 / 8x8dct=1 / cqm=0 / deadzone=21,11 / fast_pskip=1 / chroma_qp_offset=-2 / threads=18 / lookahead_threads=3 / sliced_threads=0 / nr=0 / decimate=1 / interlaced=0 / bluray_compat=0 / constrained_intra=0 / bframes=8 / b_pyramid=2 / b_adapt=2 / b_bias=0 / direct=3 / weightb=1 / open_gop=0 / weightp=2 / keyint=250 / keyint_min=24 / scenecut=40 / intra_refresh=0 / rc_lookahead=60 / rc=2pass / mbtree=1 / bitrate=13441 / ratetol=1.0 / qcomp=0.60 / qpmin=0 / qpmax=69 / qpstep=4 / cplxblur=20.0 / qblur=0.5 / ip_ratio=1.40 / aq=1:1.00
Default : Yes
Forced : No
Statistics Tags Issue : no_variable_data 1970-01-01 00:00:00 / no_variable_data 2010-02-22 21:41:29
FromStats_BitRate : 13438260
FromStats_Duration : 01:23:45.084000000
FromStats_FrameCount : 120602
FromStats_StreamSize : 8441048466

Audio
ID : 2
Format : DTS
Format/Info : Digital Theater Systems
Mode : 16
Format settings, Endianness : Big
Codec ID : A_DTS
Duration : 1 h 23 min
Bit rate mode : Constant
Bit rate : 1 509 kb/s
Channel(s) : 6 channels
Channel positions : Front: L C R, Side: L R, LFE
Sampling rate : 48.0 kHz
Frame rate : 93.750 FPS (512 spf)
Bit depth : 24 bits
Compression mode : Lossy
Stream size : 904 MiB (10%)
Title : French audio
Language : French
Default : Yes
Forced : No
Statistics Tags Issue : no_variable_data 1970-01-01 00:00:00 / no_variable_data 2010-02-22 21:41:29
FromStats_BitRate : 1508999
FromStats_Duration : 01:23:44.054000000
FromStats_FrameCount : 471005
FromStats_StreamSize : 947662060

Text
ID : 3
Format : UTF-8
Codec ID : S_TEXT/UTF8
Codec ID/Info : UTF-8 Plain Text
Title : French SDH
Language : French
Default : No
Forced : No
Statistics Tags Issue : no_variable_data 1970-01-01 00:00:00 / no_variable_data 2010-02-22 21:41:29
FromStats_BitRate : 85
FromStats_Duration : 01:23:37.542000000
FromStats_FrameCount : 1308
FromStats_StreamSize : 53804

Menu
00:00:00.000 : en:00:00:00.000
00:20:30.750 : en:00:20:30.750
00:38:19.083 : en:00:38:19.083
00:50:37.542 : en:00:50:37.542
01:11:21.750 : en:01:11:21.750

Screens.png

Click Image To View Full Size

eHlzW.th.jpg
Click To View Screenshot
Click To View Screenshot
Click To View Screenshot


1 个附件 售价 大小 下载 时间

Les.Habitants.2016.FRENCH.1080p.BluRay.x264-FiDELiO[btbtt.co].torrent 0 金币 12.42K 824 次 8月前

#1楼
发帖时间:2017-01-12 16:58:08   |   回复数:4
blue23
超凡入圣№
感谢楼主分享
8月前 #2楼
liyouchai
超凡入圣№
谢谢楼主分享资源
8月前 #3楼
911degrees
一代宗师
非常感谢,谢谢分享
8月前 #4楼
yuanzren
一派掌门
谢谢楼主分享
8月前 #5楼
游客组