HELLO小虾
版主

[2016] [欧美] [犯罪] [BD-1080P] [BT下载]空尖弹 The.Hollow.Point.2016.1080p.BluRay.x264.DTS-MT 7.16GB

-->

◎译  名 空尖弹

◎片  名 The Hollow Point

◎年  代 2016

◎国  家 美国

◎类  别 犯罪/惊悚

◎语  言 英语

◎上映日期 2016-12-16(美国)

◎IMDb评分  5.4/10 from 1,398 users

◎IMDb链接  http://www.imdb.com/title/tt2918606/

◎豆瓣评分 4.8/10 from 253 users

◎豆瓣链接 https://movie.douban.com/subject/25773930/

◎BT之家整理 http://www.btbtt.co

◎片  长 97分钟

◎导  演 冈扎罗·洛佩兹-加勒果 Gonzalo López-Gallego

◎主  演 琳恩·柯林斯 Lynn Collins

      帕特里克·威尔森 Patrick Wilson

      伊恩·麦柯肖恩 Ian McShane

      约翰·雷吉扎莫 John Leguizamo

      詹姆斯·贝鲁什 James Belushi

      Nathan Stevens

      Michael Flynn

      Heather Beers

      Dave Bresnahan

      戴维·费尔南德斯 David Fernandez

      Deborah Lee Douglas

      nm1343925 Derek Boone

      David H. Stevens

      Corey Sondrup

      Derrick Dean


◎简  介


  美国-墨西哥边界,一个小镇的警长调查一起演变成血案的贩毒团伙交易……



Video
ID                                       : 1
Format                                   : AVC
Format/Info                              : Advanced Video Codec
Format profile                           : High@L4.1
Format settings, CABAC                   : Yes
Format settings, ReFrames                : 4 frames
Codec ID                                 : V_MPEG4/ISO/AVC
Duration                                 : 1h 37mn
Bit rate                                 : 8 836 Kbps
Width                                    : 1 920 pixels
Height                                   : 800 pixels
Display aspect ratio                     : 2.40:1
Frame rate mode                          : Constant
Frame rate                               : 23.976 (24000/1001) fps
Color space                              : YUV
Chroma subsampling                       : 4:2:0
Bit depth                                : 8 bits
Scan type                                : Progressive
Bits/(Pixel*Frame)                       : 0.240
Stream size                              : 6.00 GiB (84%)
Writing library                          : x264 core 142 r2431+42 c69a006 tMod [8-bit@4:2:0 X86_64]
Encoding settings                        : cabac=1 / ref=4 / deblock=1:-3:-3 / analyse=0x3:0x113 / me=umh / subme=10 / psy=1 / fade_compensate=0.00 / psy_rd=1.00:0.05 / mixed_ref=1 / me_range=48 / chroma_me=1 / trellis=2 / 8x8dct=1 / cqm=0 / deadzone=21,11 / fast_pskip=0 / chroma_qp_offset=-2 / threads=12 / lookahead_threads=2 / sliced_threads=0 / nr=0 / decimate=1 / interlaced=0 / bluray_compat=0 / constrained_intra=0 / fgo=0 / bframes=8 / b_pyramid=2 / b_adapt=2 / b_bias=0 / direct=3 / weightb=1 / open_gop=0 / weightp=2 / keyint=250 / keyint_min=23 / scenecut=40 / intra_refresh=0 / rc_lookahead=40 / rc=crf / mbtree=0 / crf=19.0000 / qcomp=0.60 / qpmin=0:0:0 / qpmax=69:69:69 / qpstep=4 / vbv_maxrate=50000 / vbv_bufsize=45000 / crf_max=0.0 / nal_hrd=none / filler=0 / ip_ratio=1.40 / pb_ratio=1.30 / aq=3:1.00 / aq-sensitivity=10.00 / aq-factor=1.00:1.00:1.00 / aq2=0 / aq3=0
Language                                 : English
Default                                  : Yes
Forced                                   : No
Color range                              : Limited
Matrix coefficients                      : BT.709

Audio
ID                                       : 2
Format                                   : DTS
Format/Info                              : Digital Theater Systems
Mode                                     : 16
Format settings, Endianness              : Big
Codec ID                                 : A_DTS
Duration                                 : 1h 37mn
Bit rate mode                            : Constant
Bit rate                                 : 1 509 Kbps
Channel(s)                               : 6 channels
Channel positions                        : Front: L C R, Side: L R, LFE
Sampling rate                            : 48.0 KHz
Frame rate                               : 93.750 fps (512 spf)
Bit depth                                : 16 bits
Compression mode                         : Lossy
Stream size                              : 1.02 GiB (14%)
Language                                 : English
Default                                  : Yes
Forced                                   : No

Text
ID                                       : 3
Format                                   : UTF-8
Codec ID                                 : S_TEXT/UTF8
Codec ID/Info                            : UTF-8 Plain Text
Language                                 : English
Default                                  : Yes
Forced                                   : No





1 个附件 售价 大小 下载 时间

The.Hollow.Point.2016.1080p.BluRay.x264.DTS-MT[btbtt.co].torrent 0 金币 72.23K 789 次 2月前

#1楼
发帖时间:2017-01-12 09:41:30   |   回复数:4
911degrees
一代宗师
非常感谢,谢谢分享
2月前 #2楼
ftgchjg
一派掌门
西部警匪片。感谢楼主。
2月前 #3楼
blue23
超凡入圣№
感谢楼主分享
2月前 #4楼
liyouchai
超凡入圣№
谢谢楼主分享资源
2月前 #5楼
游客组