aoloffline
版主

[2016] [欧美] [喜剧] [Remux] [BT下载]犯罪大师 Masterminds.2016.1080p.BluRay.REMUX.AVC.DTS-HD.MA.5.1-FGT 18GB

-->

◎译  名 犯罪大师/笨贼乐盗家(台)/最爆盗贼团(港)

◎片  名 Masterminds

◎年  代 2016

◎国  家 美国

◎类  别 喜剧/动作/犯罪

◎语  言 西班牙语/英语

◎上映日期 2016-09-30(美国)

◎IMDb评分  5.7/10 from 11,233 users

◎IMDb链接  http://www.imdb.com/title/tt2461150/

◎豆瓣评分 6.2/10 from 81 users

◎豆瓣链接 https://movie.douban.com/subject/21335963/

◎BT之家整理 http://www.btbtt.co

◎片  长 94分钟

◎导  演 杰瑞德·赫斯 Jared Hess

◎主  演 克里斯汀·韦格 Kristen Wiig

      欧文·威尔逊 Owen Wilson

      杰森·苏戴奇斯 Jason Sudeikis

      凯特·麦克金农 Kate McKinnon

      扎克·加利凡纳基斯 Zach Galifianakis

      肯·马里诺 Ken Marino

      乔恩·戴利 Jon Daly

      Devin Ratray

      罗达·格里菲丝 Rhoda Griffis

      Danny Comden

      马特·科博伊 Matt Corboy


◎简  介


  影片根据真实事件改编。扎克扮演的大卫是个简单的人,生活乏善可陈。他是一个运钞车司机,虽然每天运送数不清的钱,可那都是别人的钱。唯一让他高兴的便是见到美貌的女同事凯利(克里斯汀·韦格饰),而也正是凯利,将他卷进了一桩改变人生的大事件。

  虽然合作的是一群超级不靠谱的劫匪,领头的是超级不靠谱的史蒂夫(欧文·威尔逊饰),抢劫计划也是漏洞百出,可大卫真的完成了不可能完成的任务,偷走了1700万美元现金。唯一的问题便是,他把这些钱交给了这群各怀鬼胎,互相出卖,背后捅刀的劫匪们,自己却成了指定的替罪羊。

  如今成了逃犯的大卫,必须躲避追捕,从一个欢乐无比的杀手(杰森·苏戴奇斯饰)枪口逃生,并想方设法让这群陷害他的人付出应有的代价。


Video
ID                                       : 1
Format                                   : AVC
Format/Info                              : Advanced Video Codec
Format profile                           : High@L4.1
Format settings, CABAC                   : Yes
Format settings, ReFrames                : 4 frames
Codec ID                                 : V_MPEG4/ISO/AVC
Duration                                 : 1h 34mn
Bit rate mode                            : Variable
Maximum bit rate                         : 38.0 Mbps
Width                                    : 1 920 pixels
Height                                   : 1 080 pixels
Display aspect ratio                     : 16:9
Frame rate mode                          : Constant
Frame rate                               : 23.976 (24000/1001) fps
Color space                              : YUV
Chroma subsampling                       : 4:2:0
Bit depth                                : 8 bits
Scan type                                : Progressive
Title                                    : Masterminds.2016.1080p.BluRay.REMUX.AVC.DTS-HD.MA.5.1-FGT
Language                                 : English
Default                                  : No
Forced                                   : No

Audio #1
ID                                       : 2
Format                                   : DTS
Format/Info                              : Digital Theater Systems
Format profile                           : MA / Core
Mode                                     : 16
Format settings, Endianness              : Big
Codec ID                                 : A_DTS
Duration                                 : 1h 34mn
Bit rate mode                            : Variable / Constant
Bit rate                                 : Unknown / 1 509 Kbps
Channel(s)                               : 6 channels
Channel positions                        : Front: L C R, Side: L R, LFE
Sampling rate                            : 48.0 KHz
Frame rate                               : 93.750 fps (512 spf)
Bit depth                                : 24 bits
Compression mode                         : Lossless / Lossy
Title                                    : Masterminds.2016.1080p.BluRay.REMUX.AVC.DTS-HD.MA.5.1-FGT
Language                                 : English
Default                                  : Yes
Forced                                   : No

Audio #2
ID                                       : 3
Format                                   : DTS
Format/Info                              : Digital Theater Systems
Mode                                     : 16
Format settings, Endianness              : Big
Codec ID                                 : A_DTS
Duration                                 : 1h 34mn
Bit rate mode                            : Constant
Bit rate                                 : 1 509 Kbps
Channel(s)                               : 6 channels
Channel positions                        : Front: L C R, Side: L R, LFE
Sampling rate                            : 48.0 KHz
Frame rate                               : 93.750 fps (512 spf)
Bit depth                                : 24 bits
Compression mode                         : Lossy
Stream size                              : 1 022 MiB (5%)
Title                                    : Masterminds.2016.1080p.BluRay.REMUX.AVC.DTS-HD.MA.5.1-FGT
Language                                 : English
Default                                  : No
Forced                                   : No

Audio #3
ID                                       : 4
Format                                   : AC-3
Format/Info                              : Audio Coding 3
Mode extension                           : CM (complete main)
Format settings, Endianness              : Big
Codec ID                                 : A_AC3
Duration                                 : 1h 34mn
Bit rate mode                            : Constant
Bit rate                                 : 224 Kbps
Channel(s)                               : 2 channels
Channel positions                        : Front: L R
Sampling rate                            : 48.0 KHz
Frame rate                               : 31.250 fps (1536 spf)
Compression mode                         : Lossy
Stream size                              : 152 MiB (1%)
Title                                    : Masterminds.2016.1080p.BluRay.REMUX.AVC.DTS-HD.MA.5.1-FGT
Language                                 : English
Default                                  : No
Forced                                   : No

Text
ID                                       : 5
Format                                   : PGS
Muxing mode                              : zlib
Codec ID                                 : S_HDMV/PGS
Codec ID/Info                            : Picture based subtitle format used on BDs/HD-DVDs
Title                                    : English-PGS
Language                                 : English
Default                                  : Yes
Forced                                   : No

Menu
00:00:00.000                             : en:Chapter 01
00:06:37.188                             : en:Chapter 02
00:10:15.239                             : en:Chapter 03
00:16:56.432                             : en:Chapter 04
00:28:08.353                             : en:Chapter 05
00:31:30.138                             : en:Chapter 06
00:37:39.715                             : en:Chapter 07
00:45:28.475                             : en:Chapter 08
00:50:03.166                             : en:Chapter 09
00:57:30.905                             : en:Chapter 10
01:02:59.609                             : en:Chapter 11
01:07:59.158                             : en:Chapter 12
01:14:12.781                             : en:Chapter 13
01:20:20.106                             : en:Chapter 14
01:23:22.455                             : en:Chapter 15
01:27:25.657                             : en:Chapter 16
01:34:37.963                             : en:Chapter 17





1 个附件 售价 大小 下载 时间

Masterminds.2016.1080p.BluRay.REMUX.AVC.DTS-HD.MA.5.1-FGT[btbtt.co].torrent 0 金币 92.42K 1106 次 1月前

#1楼
发帖时间:2017-01-11 19:07:19   |   回复数:4
liyouchai
一代宗师
谢谢楼主分享资源
1月前 #2楼
911degrees
一代宗师
非常感谢,谢谢分享
1月前 #3楼
blue23
超凡入圣№
感谢楼主分享
1月前 #4楼
zzufo
武林高手
非常感谢,谢谢楼主分享!
24天前 #5楼
游客组