aoloffline
版主

[2014] [欧美] [奇幻] [WEB-1080P] [BT下载]手机人生 Zapped.2014.1080p.WEBRip.DD2.0.x264-TrollHD 6.28GB

-->


◎译  名 手机人生

◎片  名 Zapped

◎年  代 2014

◎国  家 美国

◎类  别 奇幻

◎语  言 英语

◎IMDb评分  5.5/10 from 2,274 users

◎IMDb链接  http://www.imdb.com/title/tt3544734/

◎豆瓣评分 5.1/10 from 267 users

◎豆瓣链接 https://movie.douban.com/subject/25875902/

◎BT之家整理 http://www.btbtt.co 

◎导  演 Peter DeLuise

◎主  演 赞达亚·科尔曼 Zendaya Coleman

      William Ainscough

      Spencer Boldman

      Samuel Patrick Chu

      亚当·迪马克 Adam DiMarco


◎简  介


  Zendaya主演的迪士尼频道原创电影,《Zapped》改编自小说《男孩都是狗》(Boys Are Dogs),讲述了一个有关手机应用的荒诞故事:主人公Zoey对母亲再婚后的新生活不满意,而沉迷于手机的她恰巧发现她手机上安装的一个驯狗应用竟然可以用来控制男孩——只要她打开这个应 用,对着面前的男人说句指令,他们就会一一照办。原以为生活可以就此变得无比美好的Zoey却发现,这个应用远没有想象中的美好,甚至周围的世界和自己的生活带来了不小的麻烦……


Video
ID                                       : 2
Format                                   : AVC
Format/Info                              : Advanced Video Codec
Format profile                           : High@L4
Format settings, CABAC                   : Yes
Format settings, ReFrames                : 4 frames
Codec ID                                 : V_MPEG4/ISO/AVC
Duration                                 : 1h 32mn
Bit rate mode                            : Variable
Bit rate                                 : 9 498 Kbps
Maximum bit rate                         : 15.0 Mbps
Width                                    : 1 920 pixels
Height                                   : 1 080 pixels
Display aspect ratio                     : 16:9
Frame rate mode                          : Constant
Frame rate                               : 23.976 (24000/1001) fps
Color space                              : YUV
Chroma subsampling                       : 4:2:0
Bit depth                                : 8 bits
Scan type                                : Progressive
Bits/(Pixel*Frame)                       : 0.191
Stream size                              : 6.13 GiB (98%)
Writing library                          : x264 core 148 r2623 d5b2374
Encoding settings                        : cabac=1 / ref=4 / deblock=1:-1:-1 / analyse=0x3:0x133 / me=umh / subme=9 / psy=1 / psy_rd=1.00:0.15 / mixed_ref=1 / me_range=24 / chroma_me=1 / trellis=2 / 8x8dct=1 / cqm=0 / deadzone=21,11 / fast_pskip=1 / chroma_qp_offset=-3 / threads=34 / lookahead_threads=5 / sliced_threads=0 / nr=150 / decimate=1 / interlaced=0 / bluray_compat=0 / constrained_intra=0 / bframes=8 / b_pyramid=2 / b_adapt=2 / b_bias=0 / direct=3 / weightb=1 / open_gop=0 / weightp=2 / keyint=120 / keyint_min=61 / scenecut=0 / intra_refresh=0 / rc_lookahead=120 / rc=crf / mbtree=1 / crf=18.0 / qcomp=0.60 / qpmin=0 / qpmax=69 / qpstep=4 / vbv_maxrate=15000 / vbv_bufsize=31250 / crf_max=0.0 / nal_hrd=vbr / filler=0 / ip_ratio=1.40 / aq=3:1.00
Default                                  : Yes
Forced                                   : No
Color range                              : Limited
Color primaries                          : BT.709
Transfer characteristics                 : BT.709
Matrix coefficients                      : BT.709

Audio
ID                                       : 1
Format                                   : E-AC-3
Format/Info                              : Audio Coding 3
Format settings, Endianness              : Big
Codec ID                                 : A_EAC3
Duration                                 : 1h 32mn
Bit rate mode                            : Constant
Bit rate                                 : 224 Kbps
Channel(s)                               : 2 channels
Channel positions                        : Front: L R
Sampling rate                            : 48.0 KHz
Frame rate                               : 187.500 fps (256 spf)
Compression mode                         : Lossy
Stream size                              : 148 MiB (2%)
Language                                 : English
Default                                  : Yes
Forced                                   : No

Text
ID                                       : 3
Format                                   : UTF-8
Codec ID                                 : S_TEXT/UTF8
Codec ID/Info                            : UTF-8 Plain Text
Duration                                 : 1h 31mn
Bit rate                                 : 67 bps
Count of elements                        : 2039
Stream size                              : 44.9 KiB (0%)
Default                                  : Yes
Forced                                   : No





1 个附件 售价 大小 下载 时间

Zapped.2014.1080p.WEBRip.DD2.0.x264-TrollHD[btbtt.co].torrent 0 金币 63.18K 1096 次 2月前

#1楼
发帖时间:2017-01-11 14:44:04   |   回复数:5
911degrees
一代宗师
非常感谢,谢谢分享
2月前 #2楼
tanchoohoon
一派掌门
感谢楼主的无私分享
2月前 #3楼
liyouchai
超凡入圣№
谢谢楼主分享资源
2月前 #4楼
blue23
超凡入圣№
感谢楼主分享
2月前 #5楼
hljwsq
一派掌门
谢谢分享
2月前 #6楼
游客组