aoloffline
版主

[更 早] [欧美] [喜剧] [WEB-1080P] [BT下载]天堂有难/天堂陷阱 Trapped.In.Paradise.1994.1080p.WEBRip.AAC2.0.x264-FGT 7.8GB

-->

◎译  名 天堂有难/天堂陷阱

◎片  名 Trapped in Paradise

◎年  代 1994

◎国  家 美国

◎类  别 冒险/喜剧/犯罪/爱情

◎语  言 英语

◎上映日期 1994-12-02

◎IMDb评分  5.9/10 from 10,285 users

◎IMDb链接  http://www.imdb.com/title/tt0111477/

◎豆瓣评分 7.0/10 from 879 users

◎豆瓣链接 https://movie.douban.com/subject/1297401/

◎BT之家整理 http://www.btbtt.co 

◎片  长 111 分钟

◎导  演 George Gallo

◎主  演 尼古拉斯·凯奇 Nicolas Cage

      乔恩·拉威茨 Jon Lovitz

      达纳·卡维 Dana Carvey

      梅晨·阿米克 Mädchen Amick

      理查德·詹金斯 Richard Jenkins


◎简  介


  比尔(尼古拉斯·凯奇 Nicolas Cage 饰),阿尔文(达纳·卡维 Dana Carvey 饰)和戴夫(乔恩·拉威茨 Jon Lovitz 饰)是三个情谊深厚的好友,阿尔文偷窃成癖,戴夫的聪明才智刚好可以帮他满足自己的癖好,尽管比尔内心善良,但耳根软的他总是经受不住两个朋友的诱惑,登上贼船。

  圣诞节将近,三个损友驾车来到了一个宁静祥和的小镇,那里淳朴的风气单纯的居民让他们的犯罪欲望蠢蠢欲动。在轻而易举的抢劫了一家银行后,如何离开被暴风雪困住的小镇成为了最大的难题。一番东躲西藏中,三个倒霉蛋竟然掉到了冰冷的湖水里,幸亏得到了镇上一位善良的年轻人相救,三人才算脱险,巧的是,这个年轻人不是别人,正是他们曾经抢劫过的那家银行的经理。



Video
ID                                       : 2
Format                                   : AVC
Format/Info                              : Advanced Video Codec
Format profile                           : High@L4
Format settings, CABAC                   : Yes
Format settings, ReFrames                : 4 frames
Codec ID                                 : V_MPEG4/ISO/AVC
Duration                                 : 58mn 39s
Bit rate mode                            : Variable
Bit rate                                 : 12.0 Mbps
Maximum bit rate                         : 15.0 Mbps
Width                                    : 1 920 pixels
Height                                   : 1 080 pixels
Display aspect ratio                     : 16:9
Frame rate mode                          : Constant
Frame rate                               : 23.976 (24000/1001) fps
Color space                              : YUV
Chroma subsampling                       : 4:2:0
Bit depth                                : 8 bits
Scan type                                : Progressive
Bits/(Pixel*Frame)                       : 0.240
Stream size                              : 4.90 GiB (95%)
Writing library                          : x264 core 148 r2623 d5b2374
Encoding settings                        : cabac=1 / ref=4 / deblock=1:-1:-1 / analyse=0x3:0x133 / me=umh / subme=9 / psy=1 / psy_rd=1.00:0.15 / mixed_ref=1 / me_range=24 / chroma_me=1 / trellis=2 / 8x8dct=1 / cqm=0 / deadzone=21,11 / fast_pskip=1 / chroma_qp_offset=-3 / threads=34 / lookahead_threads=5 / sliced_threads=0 / nr=150 / decimate=1 / interlaced=0 / bluray_compat=0 / constrained_intra=0 / bframes=8 / b_pyramid=2 / b_adapt=2 / b_bias=0 / direct=3 / weightb=1 / open_gop=0 / weightp=2 / keyint=120 / keyint_min=61 / scenecut=0 / intra_refresh=0 / rc_lookahead=120 / rc=crf / mbtree=1 / crf=18.0 / qcomp=0.60 / qpmin=0 / qpmax=69 / qpstep=4 / vbv_maxrate=15000 / vbv_bufsize=31250 / crf_max=0.0 / nal_hrd=vbr / filler=0 / ip_ratio=1.40 / aq=3:1.00
Default                                  : Yes
Forced                                   : No
Color range                              : Limited
Color primaries                          : BT.709
Transfer characteristics                 : BT.709
Matrix coefficients                      : BT.709

Audio
ID                                       : 1
Format                                   : E-AC-3
Format/Info                              : Audio Coding 3
Format settings, Endianness              : Big
Codec ID                                 : A_EAC3
Duration                                 : 58mn 39s
Bit rate mode                            : Constant
Bit rate                                 : 640 Kbps
Channel(s)                               : 6 channels
Channel positions                        : Front: L C R, Side: L R, LFE
Sampling rate                            : 48.0 KHz
Frame rate                               : 187.500 fps (256 spf)
Compression mode                         : Lossy
Stream size                              : 269 MiB (5%)
Language                                 : English
Default                                  : Yes
Forced                                   : No

Text
ID                                       : 3
Format                                   : UTF-8
Codec ID                                 : S_TEXT/UTF8
Codec ID/Info                            : UTF-8 Plain Text
Duration                                 : 58mn 25s
Bit rate                                 : 80 bps
Count of elements                        : 1081
Stream size                              : 34.4 KiB (0%)
Default                                  : Yes
Forced                                   : No





1 个附件 售价 大小 下载 时间

Trapped.In.Paradise.1994.1080p.WEBRip.AAC2.0.x264-FGT[btbtt.co].torrent 0 金币 79.07K 511 次 9天前

#1楼
发帖时间:2017-01-11 14:25:45   |   回复数:3
911degrees
一代宗师
非常感谢,谢谢分享
9天前 #2楼
liyouchai
一代宗师
谢谢楼主分享资源
9天前 #3楼
blue23
超凡入圣№
感谢楼主分享
8天前 #4楼
游客组